  0
SECTION
  2
HEADER
  9
$ACADVER
  1
AC1009
  9
$INSBASE
 10
0.0
 20
0.0
 30
0.0
  9
$EXTMIN
 10
131.10095305543041
 20
153.05080967722441
 30
-0.0015258207003583
  9
$EXTMAX
 10
188.02935850623689
 20
171.0023792567533
 30
0.0000000349246037
  9
$LIMMIN
 10
0.0
 20
0.0
  9
$LIMMAX
 10
324.0
 20
216.0
  9
$ORTHOMODE
 70
     1
  9
$REGENMODE
 70
     1
  9
$FILLMODE
 70
     1
  9
$QTEXTMODE
 70
     0
  9
$MIRRTEXT
 70
     1
  9
$DRAGMODE
 70
     2
  9
$LTSCALE
 40
2.0
  9
$OSMODE
 70
   495
  9
$ATTMODE
 70
     1
  9
$TEXTSIZE
 40
0.6923462888057088
  9
$TRACEWID
 40
0.05
  9
$TEXTSTYLE
  7
KITE
  9
$CLAYER
  8
LINES
  9
$CELTYPE
  6
BYLAYER
  9
$CECOLOR
 62
   256
  9
$DIMSCALE
 40
4.0
  9
$DIMASZ
 40
0.09375
  9
$DIMEXO
 40
0.0625
  9
$DIMDLI
 40
0.375
  9
$DIMRND
 40
0.0
  9
$DIMDLE
 40
0.0625
  9
$DIMEXE
 40
0.0625
  9
$DIMTP
 40
0.0
  9
$DIMTM
 40
0.0
  9
$DIMTXT
 40
0.09375
  9
$DIMCEN
 40
0.09375
  9
$DIMTSZ
 40
0.0
  9
$DIMTOL
 70
     0
  9
$DIMLIM
 70
     0
  9
$DIMTIH
 70
     0
  9
$DIMTOH
 70
     0
  9
$DIMSE1
 70
     0
  9
$DIMSE2
 70
     0
  9
$DIMTAD
 70
     1
  9
$DIMZIN
 70
     3
  9
$DIMBLK
  1

  9
$DIMASO
 70
     1
  9
$DIMSHO
 70
     1
  9
$DIMPOST
  1

  9
$DIMAPOST
  1

  9
$DIMALT
 70
     0
  9
$DIMALTD
 70
     2
  9
$DIMALTF
 40
25.399999999999999
  9
$DIMLFAC
 40
1.0
  9
$DIMTOFL
 70
     0
  9
$DIMTVP
 40
0.0
  9
$DIMTIX
 70
     0
  9
$DIMSOXD
 70
     0
  9
$DIMSAH
 70
     0
  9
$DIMBLK1
  1

  9
$DIMBLK2
  1

  9
$DIMSTYLE
  2
KITE
  9
$DIMCLRD
 70
     1
  9
$DIMCLRE
 70
     1
  9
$DIMCLRT
 70
     4
  9
$DIMTFAC
 40
1.0
  9
$DIMGAP
 40
0.09375
  9
$LUNITS
 70
     4
  9
$LUPREC
 70
     5
  9
$SKETCHINC
 40
0.1
  9
$FILLETRAD
 40
0.0
  9
$AUNITS
 70
     0
  9
$AUPREC
 70
     4
  9
$MENU
  1
acad
  9
$ELEVATION
 40
0.0
  9
$PELEVATION
 40
0.0
  9
$THICKNESS
 40
0.0
  9
$LIMCHECK
 70
     0
  9
$BLIPMODE
 70
     0
  9
$CHAMFERA
 40
0.1875
  9
$CHAMFERB
 40
0.1875
  9
$SKPOLY
 70
     0
  9
$TDCREATE
 40
2451643.7459905092
  9
$TDUPDATE
 40
2452706.4570385418
  9
$TDINDWG
 40
0.4215921296
  9
$TDUSRTIMER
 40
0.4215921296
  9
$USRTIMER
 70
     1
  9
$ANGBASE
 50
0.0
  9
$ANGDIR
 70
     0
  9
$PDMODE
 70
    98
  9
$PDSIZE
 40
0.25
  9
$PLINEWID
 40
0.03125
  9
$COORDS
 70
     2
  9
$SPLFRAME
 70
     0
  9
$SPLINETYPE
 70
     6
  9
$SPLINESEGS
 70
     8
  9
$ATTDIA
 70
     0
  9
$ATTREQ
 70
     1
  9
$HANDLING
 70
  4097
  9
$HANDSEED
  5
4BE
  9
$SURFTAB1
 70
     6
  9
$SURFTAB2
 70
     6
  9
$SURFTYPE
 70
     6
  9
$SURFU
 70
     6
  9
$SURFV
 70
     6
  9
$UCSNAME
  2

  9
$UCSORG
 10
0.0
 20
0.0
 30
0.0
  9
$UCSXDIR
 10
1.0
 20
0.0
 30
0.0
  9
$UCSYDIR
 10
0.0
 20
1.0
 30
0.0
  9
$PUCSNAME
  2

  9
$PUCSORG
 10
0.0
 20
0.0
 30
0.0
  9
$PUCSXDIR
 10
1.0
 20
0.0
 30
0.0
  9
$PUCSYDIR
 10
0.0
 20
1.0
 30
0.0
  9
$USERI1
 70
     0
  9
$USERI2
 70
     0
  9
$USERI3
 70
     0
  9
$USERI4
 70
     0
  9
$USERI5
 70
     0
  9
$USERR1
 40
0.0
  9
$USERR2
 40
0.0
  9
$USERR3
 40
0.0
  9
$USERR4
 40
0.0
  9
$USERR5
 40
0.0
  9
$WORLDVIEW
 70
     1
  9
$SHADEDGE
 70
     3
  9
$SHADEDIF
 70
    70
  9
$TILEMODE
 70
     1
  9
$MAXACTVP
 70
    16
  9
$PLIMCHECK
 70
     0
  9
$PEXTMIN
 10
1.0000000000000000E+020
 20
1.0000000000000000E+020
 30
1.0000000000000000E+020
  9
$PEXTMAX
 10
-1.0000000000000000E+020
 20
-1.0000000000000000E+020
 30
-1.0000000000000000E+020
  9
$PLIMMIN
 10
0.0
 20
0.0
  9
$PLIMMAX
 10
12.0
 20
9.0
  9
$UNITMODE
 70
     0
  9
$VISRETAIN
 70
     0
  9
$PLINEGEN
 70
     0
  9
$PSLTSCALE
 70
     1
  0
ENDSEC
  0
SECTION
  2
TABLES
  0
TABLE
  2
VPORT
 70
     4
  0
VPORT
  2
*ACTIVE
 70
     0
 10
0.0
 20
0.0
 11
1.0
 21
1.0
 12
153.64909929297559
 22
161.66585920279309
 13
0.0
 23
0.0
 14
1.0
 24
1.0
 15
60.0
 25
60.0
 16
0.0
 26
0.0
 36
1.0
 17
0.0
 27
0.0
 37
0.0
 40
26.622255928492159
 41
2.1544715447154461
 42
50.0
 43
0.0
 44
0.0
 50
0.0
 51
0.0
 71
     0
 72
   100
 73
     1
 74
     0
 75
     0
 76
     1
 77
     0
 78
     0
  0
ENDTAB
  0
TABLE
  2
LTYPE
 70
     3
  0
LTYPE
  2
CONTINUOUS
 70
     0
  3
Solid line
 72
    65
 73
     0
 40
0.0
  0
LTYPE
  2
HIDDEN
 70
     0
  3
__ __ __ __ __ __ __ __ __ __ __ __ __ __ __ __
 72
    65
 73
     2
 40
0.375
 49
0.25
 49
-0.125
  0
LTYPE
  2
CENTER
 70
     0
  3
____ _ ____ _ ____ _ ____ _ ____ _ ____ _ ____ 
 72
    65
 73
     4
 40
2.0
 49
1.25
 49
-0.25
 49
0.25
 49
-0.25
  0
ENDTAB
  0
TABLE
  2
LAYER
 70
     4
  0
LAYER
  2
0
 70
     0
 62
     7
  6
CONTINUOUS
  0
LAYER
  2
LINES
 70
     0
 62
     7
  6
CONTINUOUS
  0
LAYER
  2
FOLD_LINE
 70
     0
 62
     1
  6
HIDDEN
  0
LAYER
  2
DEFPOINTS
 70
     0
 62
     7
  6
CONTINUOUS
  0
ENDTAB
  0
TABLE
  2
STYLE
 70
     3
  0
STYLE
  2
STANDARD
 70
     0
 40
0.0
 41
1.0
 50
0.0
 71
     0
 42
0.2
  3
txt
  4

  0
STYLE
  2
NEW
 70
     0
 40
0.0
 41
1.0
 50
0.0
 71
     0
 42
0.25
  3
COBT____.PFB
  4

  0
STYLE
  2
KITE
 70
     0
 40
0.0
 41
1.0
 50
0.0
 71
     0
 42
0.6923462888057088
  3
SIMPLEX.SHX
  4

  0
ENDTAB
  0
TABLE
  2
VIEW
 70
     0
  0
ENDTAB
  0
TABLE
  2
UCS
 70
     0
  0
ENDTAB
  0
TABLE
  2
APPID
 70
     1
  0
APPID
  2
ACAD
 70
     0
  0
ENDTAB
  0
TABLE
  2
DIMSTYLE
 70
     1
  0
DIMSTYLE
  2
KITE
 70
     0
  3

  4

  5

  6

  7

 40
8.0
 41
0.0
 42
0.0625
 43
0.375
 44
0.0625
 45
0.0
 46
0.0625
 47
0.0
 48
0.0
140
0.09375
141
0.09375
142
0.09375
143
25.399999999999999
144
1.0
145
0.0
146
1.0
147
0.09375
 71
     0
 72
     0
 73
     0
 74
     0
 75
     0
 76
     0
 77
     1
 78
     1
170
     0
171
     2
172
     0
173
     0
174
     0
175
     0
176
     1
177
     1
178
     4
  0
ENDTAB
  0
ENDSEC
  0
SECTION
  2
BLOCKS
  0
BLOCK
  8
0
  2
$MODEL_SPACE
 70
     0
 10
0.0
 20
0.0
 30
0.0
  3
$MODEL_SPACE
  1

  0
ENDBLK
  5
3A
  8
0
  0
BLOCK
 67
     1
  8
0
  2
$PAPER_SPACE
 70
     0
 10
0.0
 20
0.0
 30
0.0
  3
$PAPER_SPACE
  1

  0
ENDBLK
  5
38
 67
     1
  8
0
  0
BLOCK
  8
0
  2
WMF2
 70
     0
 10
0.0
 20
0.0
 30
0.0
  3
WMF2
  1

  0
ENDBLK
  5
3C
  8
0
  0
BLOCK
  8
0
  2
*D1
 70
     1
 10
0.0
 20
0.0
 30
0.0
  3
*D1
  1

  0
LINE
  5
3E
  8
0
  6
BYBLOCK
 62
     1
 10
140.12599283346381
 20
164.21836638208731
 30
0.0
 11
140.12599283346381
 21
164.39235145009121
 31
0.0
  0
LINE
  5
3F
  8
0
  6
BYBLOCK
 62
     1
 10
141.12599283346381
 20
164.97340044665839
 30
0.0
 11
141.12599283346381
 21
163.89235145009121
 31
0.0
  0
LINE
  5
40
  8
0
  6
BYBLOCK
 62
     1
 10
139.7509928334639
 20
164.14235145009121
 30
0.0
 11
139.37599283346381
 21
164.14235145009121
 31
0.0
  0
LINE
  5
41
  8
0
  6
BYBLOCK
 62
     1
 10
141.50099283346381
 20
164.14235145009121
 30
0.0
 11
141.8759928334639
 21
164.14235145009121
 31
0.0
  0
LINE
  5
42
  8
0
  6
BYBLOCK
 62
     1
 10
141.8759928334639
 20
164.14235145009121
 30
0.0
 11
142.67956426203531
 21
164.14235145009121
 31
0.0
  0
SOLID
  5
43
  8
0
  6
BYBLOCK
 62
     1
 10
139.7509928334639
 20
164.20485145009121
 30
0.0
 11
139.7509928334639
 21
164.07985145009121
 31
0.0
 12
140.12599283346381
 22
164.14235145009121
 32
0.0
 13
140.12599283346381
 23
164.14235145009121
 33
0.0
  0
SOLID
  5
44
  8
0
  6
BYBLOCK
 62
     1
 10
141.50099283346381
 20
164.20485145009121
 30
0.0
 11
141.50099283346381
 21
164.07985145009121
 31
0.0
 12
141.12599283346381
 22
164.14235145009121
 32
0.0
 13
141.12599283346381
 23
164.14235145009121
 33
0.0
  0
TEXT
  5
45
  8
0
  6
BYBLOCK
 62
     4
 10
142.2509928334639
 20
164.32985145009121
 30
0.0
 40
0.375
  1
1"
  7
KITE
 72
     1
 11
142.46527854774959
 21
164.51735145009121
 31
0.0
 73
     2
  0
POINT
  5
47
  8
DEFPOINTS
  6
BYBLOCK
 62
     0
 10
140.12599283346381
 20
163.96836638208731
 30
0.0
  0
POINT
  5
48
  8
DEFPOINTS
  6
BYBLOCK
 62
     0
 10
141.12599283346381
 20
165.2234004466583
 30
0.0
  0
POINT
  5
49
  8
DEFPOINTS
  6
BYBLOCK
 62
     0
 10
141.12599283346381
 20
164.14235145009121
 30
0.0
  0
ENDBLK
  5
4A
  8
0
  0
BLOCK
  8
0
  2
*D3
 70
     1
 10
0.0
 20
0.0
 30
0.0
  3
*D3
  1

  0
LINE
  5
4C
  8
0
  6
BYBLOCK
 62
     1
 10
140.37599283346381
 20
168.84908855131351
 30
0.0
 11
149.77851973569739
 21
168.84908855131351
 31
0.0
  0
LINE
  5
4D
  8
0
  6
BYBLOCK
 62
     1
 10
140.37599283346381
 20
166.47408855131351
 30
0.0
 11
149.77851973569739
 21
166.47408855131351
 31
0.0
  0
LINE
  5
4E
  8
0
  6
BYBLOCK
 62
     1
 10
149.52851973569739
 20
169.22408855131351
 30
0.0
 11
149.52851973569739
 21
169.59908855131351
 31
0.0
  0
LINE
  5
4F
  8
0
  6
BYBLOCK
 62
     1
 10
149.52851973569739
 20
166.09908855131351
 30
0.0
 11
149.52851973569739
 21
165.72408855131351
 31
0.0
  0
LINE
  5
50
  8
0
  6
BYBLOCK
 62
     1
 10
149.52851973569739
 20
165.72408855131351
 30
0.0
 11
149.52851973569739
 21
163.4026599798849
 31
0.0
  0
SOLID
  5
51
  8
0
  6
BYBLOCK
 62
     1
 10
149.46601973569739
 20
169.22408855131351
 30
0.0
 11
149.59101973569739
 21
169.22408855131351
 31
0.0
 12
149.52851973569739
 22
168.84908855131351
 32
0.0
 13
149.52851973569739
 23
168.84908855131351
 33
0.0
  0
SOLID
  5
52
  8
0
  6
BYBLOCK
 62
     1
 10
149.46601973569739
 20
166.09908855131351
 30
0.0
 11
149.59101973569739
 21
166.09908855131351
 31
0.0
 12
149.52851973569739
 22
166.47408855131351
 32
0.0
 13
149.52851973569739
 23
166.47408855131351
 33
0.0
  0
TEXT
  5
53
  8
0
  6
BYBLOCK
 62
     4
 10
149.34101973569739
 20
163.4026599798849
 30
0.0
 40
0.375
  1
2 3/8"
 50
90.0
  7
KITE
 72
     1
 11
149.15351973569739
 21
164.37587426559921
 31
0.0
 73
     2
  0
POINT
  5
54
  8
DEFPOINTS
  6
BYBLOCK
 62
     0
 10
140.12599283346381
 20
168.84908855131351
 30
0.0
  0
POINT
  5
55
  8
DEFPOINTS
  6
BYBLOCK
 62
     0
 10
140.12599283346381
 20
166.47408855131351
 30
0.0
  0
POINT
  5
56
  8
DEFPOINTS
  6
BYBLOCK
 62
     0
 10
149.52851973569739
 20
166.47408855131351
 30
0.0
  0
ENDBLK
  5
57
  8
0
  0
BLOCK
  8
0
  2
*D4
 70
     1
 10
0.0
 20
0.0
 30
0.0
  3
*D4
  1

  0
LINE
  5
59
  8
0
  6
BYBLOCK
 62
     1
 10
149.77851973569739
 20
168.84908855131351
 30
0.0
 11
153.66819020435369
 21
168.84908855131351
 31
0.0
  0
LINE
  5
5A
  8
0
  6
BYBLOCK
 62
     1
 10
140.37599283346381
 20
155.4740885513134
 30
0.0
 11
153.66819020435369
 21
155.4740885513134
 31
0.0
  0
LINE
  5
5B
  8
0
  6
BYBLOCK
 62
     1
 10
153.41819020435369
 20
168.47408855131351
 30
0.0
 11
153.41819020435369
 21
155.8490885513134
 31
0.0
  0
SOLID
  5
5C
  8
0
  6
BYBLOCK
 62
     1
 10
153.35569020435369
 20
168.47408855131351
 30
0.0
 11
153.48069020435369
 21
168.47408855131351
 31
0.0
 12
153.41819020435369
 22
168.84908855131351
 32
0.0
 13
153.41819020435369
 23
168.84908855131351
 33
0.0
  0
SOLID
  5
5D
  8
0
  6
BYBLOCK
 62
     1
 10
153.35569020435369
 20
155.8490885513134
 30
0.0
 11
153.48069020435369
 21
155.8490885513134
 31
0.0
 12
153.41819020435369
 22
155.4740885513134
 32
0.0
 13
153.41819020435369
 23
155.4740885513134
 33
0.0
  0
TEXT
  5
5E
  8
0
  6
BYBLOCK
 62
     4
 10
153.23069020435369
 20
161.0455171227421
 30
0.0
 40
0.375
  1
13 3/8"
 50
90.0
  7
KITE
 72
     1
 11
153.04319020435369
 21
162.16158855131351
 31
0.0
 73
     2
  0
POINT
  5
5F
  8
DEFPOINTS
  6
BYBLOCK
 62
     0
 10
149.52851973569739
 20
168.84908855131351
 30
0.0
  0
POINT
  5
60
  8
DEFPOINTS
  6
BYBLOCK
 62
     0
 10
140.12599283346381
 20
155.4740885513134
 30
0.0
  0
POINT
  5
61
  8
DEFPOINTS
  6
BYBLOCK
 62
     0
 10
153.41819020435369
 20
155.4740885513134
 30
0.0
  0
ENDBLK
  5
62
  8
0
  0
BLOCK
  8
0
  2
*D6
 70
     1
 10
0.0
 20
0.0
 30
0.0
  3
*D6
  1

  0
LINE
  5
64
  8
0
  6
BYBLOCK
 62
     1
 10
140.37599283346381
 20
159.22408855131351
 30
0.0
 11
150.0107389518478
 21
159.22408855131351
 31
0.0
  0
LINE
  5
65
  8
0
  6
BYBLOCK
 62
     1
 10
149.66241018992719
 20
155.4740885513134
 30
0.0
 11
150.0107389518478
 21
155.4740885513134
 31
0.0
  0
LINE
  5
66
  8
0
  6
BYBLOCK
 62
     1
 10
149.7607389518478
 20
158.84908855131351
 30
0.0
 11
149.7607389518478
 21
155.8490885513134
 31
0.0
  0
SOLID
  5
67
  8
0
  6
BYBLOCK
 62
     1
 10
149.6982389518478
 20
158.84908855131351
 30
0.0
 11
149.8232389518478
 21
158.84908855131351
 31
0.0
 12
149.7607389518478
 22
159.22408855131351
 32
0.0
 13
149.7607389518478
 23
159.22408855131351
 33
0.0
  0
SOLID
  5
68
  8
0
  6
BYBLOCK
 62
     1
 10
149.6982389518478
 20
155.8490885513134
 30
0.0
 11
149.8232389518478
 21
155.8490885513134
 31
0.0
 12
149.7607389518478
 22
155.4740885513134
 32
0.0
 13
149.7607389518478
 23
155.4740885513134
 33
0.0
  0
TEXT
  5
69
  8
0
  6
BYBLOCK
 62
     4
 10
149.5732389518478
 20
156.37587426559921
 30
0.0
 40
0.375
  1
3 3/4"
 50
90.0
  7
KITE
 72
     1
 11
149.3857389518478
 21
157.34908855131351
 31
0.0
 73
     2
  0
POINT
  5
6A
  8
DEFPOINTS
  6
BYBLOCK
 62
     0
 10
140.12599283346381
 20
159.22408855131351
 30
0.0
  0
POINT
  5
6B
  8
DEFPOINTS
  6
BYBLOCK
 62
     0
 10
149.41241018992719
 20
155.4740885513134
 30
0.0
  0
POINT
  5
6C
  8
DEFPOINTS
  6
BYBLOCK
 62
     0
 10
149.7607389518478
 20
155.4740885513134
 30
0.0
  0
ENDBLK
  5
6D
  8
0
  0
BLOCK
  8
0
  2
*D9
 70
     1
 10
0.0
 20
0.0
 30
0.0
  3
*D9
  1

  0
LINE
  5
6F
  8
0
  6
BYBLOCK
 62
     1
 10
151.60071114954121
 20
155.4740885513134
 30
0.0
 11
151.54265631435109
 21
155.4740885513134
 31
0.0
  0
LINE
  5
70
  8
0
  6
BYBLOCK
 62
     1
 10
147.85549777813341
 20
162.97408855131351
 30
0.0
 11
152.04265631435109
 21
162.97408855131351
 31
0.0
  0
LINE
  5
71
  8
0
  6
BYBLOCK
 62
     1
 10
151.79265631435109
 20
155.8490885513134
 30
0.0
 11
151.79265631435109
 21
162.59908855131351
 31
0.0
  0
SOLID
  5
72
  8
0
  6
BYBLOCK
 62
     1
 10
151.73015631435109
 20
155.8490885513134
 30
0.0
 11
151.85515631435109
 21
155.8490885513134
 31
0.0
 12
151.79265631435109
 22
155.4740885513134
 32
0.0
 13
151.79265631435109
 23
155.4740885513134
 33
0.0
  0
SOLID
  5
73
  8
0
  6
BYBLOCK
 62
     1
 10
151.73015631435109
 20
162.59908855131351
 30
0.0
 11
151.85515631435109
 21
162.59908855131351
 31
0.0
 12
151.79265631435109
 22
162.97408855131351
 32
0.0
 13
151.79265631435109
 23
162.97408855131351
 33
0.0
  0
TEXT
  5
74
  8
0
  6
BYBLOCK
 62
     4
 10
151.60515631435109
 20
158.28658855131351
 30
0.0
 40
0.375
  1
7 1/2"
 50
90.0
  7
KITE
 72
     1
 11
151.41765631435109
 21
159.22408855131351
 31
0.0
 73
     2
  0
POINT
  5
75
  8
DEFPOINTS
  6
BYBLOCK
 62
     0
 10
151.85071114954121
 20
155.4740885513134
 30
0.0
  0
POINT
  5
76
  8
DEFPOINTS
  6
BYBLOCK
 62
     0
 10
147.60549777813341
 20
162.97408855131351
 30
0.0
  0
POINT
  5
77
  8
DEFPOINTS
  6
BYBLOCK
 62
     0
 10
151.79265631435109
 20
162.97408855131351
 30
0.0
  0
ENDBLK
  5
78
  8
0
  0
BLOCK
  8
0
  2
*D10
 70
     1
 10
0.0
 20
0.0
 30
0.0
  3
*D10
  1

  0
LINE
  5
7A
  8
0
  6
BYBLOCK
 62
     1
 10
132.6464878887943
 20
163.22408855131351
 30
0.0
 11
132.6464878887943
 21
170.13385978717039
 31
0.0
  0
LINE
  5
7B
  8
0
  6
BYBLOCK
 62
     1
 10
147.60549777813341
 20
163.22408855131351
 30
0.0
 11
147.60549777813341
 21
170.13385978717039
 31
0.0
  0
LINE
  5
7C
  8
0
  6
BYBLOCK
 62
     1
 10
133.0214878887943
 20
169.88385978717039
 30
0.0
 11
147.23049777813341
 21
169.88385978717039
 31
0.0
  0
SOLID
  5
7D
  8
0
  6
BYBLOCK
 62
     1
 10
133.0214878887943
 20
169.94635978717039
 30
0.0
 11
133.0214878887943
 21
169.82135978717039
 31
0.0
 12
132.6464878887943
 22
169.88385978717039
 32
0.0
 13
132.6464878887943
 23
169.88385978717039
 33
0.0
  0
SOLID
  5
7E
  8
0
  6
BYBLOCK
 62
     1
 10
147.23049777813341
 20
169.94635978717039
 30
0.0
 11
147.23049777813341
 21
169.82135978717039
 31
0.0
 12
147.60549777813341
 22
169.88385978717039
 32
0.0
 13
147.60549777813341
 23
169.88385978717039
 33
0.0
  0
TEXT
  5
7F
  8
0
  6
BYBLOCK
 62
     4
 10
139.7331356906067
 20
170.07135978717039
 30
0.0
 40
0.375
  1
15"
  7
KITE
 72
     1
 11
140.12599283346381
 21
170.25885978717039
 31
0.0
 73
     2
  0
POINT
  5
80
  8
DEFPOINTS
  6
BYBLOCK
 62
     0
 10
132.6464878887943
 20
162.97408855131351
 30
0.0
  0
POINT
  5
81
  8
DEFPOINTS
  6
BYBLOCK
 62
     0
 10
147.60549777813341
 20
162.97408855131351
 30
0.0
  0
POINT
  5
82
  8
DEFPOINTS
  6
BYBLOCK
 62
     0
 10
147.60549777813341
 20
169.88385978717039
 30
0.0
  0
ENDBLK
  5
83
  8
0
  0
BLOCK
  8
0
  2
*D11
 70
     1
 10
0.0
 20
0.0
 30
0.0
  3
*D11
  1

  0
LINE
  5
13F
  8
LINES
 62
     1
 10
132.4900520110769
 20
163.1690957721101
 30
0.0
 11
131.94859237159659
 21
163.84405947614869
 31
0.0
  0
LINE
  5
140
  8
LINES
 62
     1
 10
136.10470148379679
 20
166.0687876942624
 30
0.0
 11
135.56324184431651
 21
166.74375139830099
 31
0.0
  0
LINE
  5
141
  8
LINES
 62
     1
 10
132.39753908050881
 20
163.883706071928
 30
0.0
 11
135.42716689083889
 21
166.31409036092839
 31
0.0
  0
SOLID
  5
142
  8
LINES
 62
     1
 10
132.35843011107951
 20
163.93245787712721
 30
0.0
 11
132.43664804993821
 21
163.83495426672889
 31
0.0
 12
132.1050282493139
 22
163.6490522553521
 32
0.0
 13
132.1050282493139
 23
163.6490522553521
 33
0.0
  0
SOLID
  5
143
  8
LINES
 62
     1
 10
135.3880579214096
 20
166.36284216612751
 30
0.0
 11
135.46627586026821
 21
166.26533855572919
 31
0.0
 12
135.71967772203379
 22
166.54874417750429
 32
0.0
 13
135.71967772203379
 23
166.54874417750429
 33
0.0
  0
INSERT
  5
144
  8
LINES
  2
*U25
 10
0.0
 20
0.0
 30
0.0
  0
POINT
  5
145
  8
DEFPOINTS
 62
     0
 10
132.64648788879421
 20
162.97408855131351
 30
0.0
  0
POINT
  5
146
  8
DEFPOINTS
 62
     0
 10
136.2611373615141
 20
165.87378047346581
 30
0.0
  0
POINT
  5
147
  8
DEFPOINTS
 62
     0
 10
135.71967772203379
 20
166.54874417750429
 30
0.0
  0
ENDBLK
  5
CC
  8
0
  0
BLOCK
  8
0
  2
*D12
 70
     1
 10
0.0
 20
0.0
 30
0.0
  3
*D12
  1

  0
LINE
  5
106
  8
LINES
 62
     1
 10
136.3668709062093
 20
165.39785307324689
 30
0.0
 11
136.3668709062093
 21
161.9995668157608
 31
0.0
  0
LINE
  5
107
  8
LINES
 62
     1
 10
143.88511476071849
 20
165.39785307324681
 30
0.0
 11
143.88511476071849
 21
161.9995668157608
 31
0.0
  0
LINE
  5
108
  8
LINES
 62
     1
 10
136.7418709062093
 20
162.2495668157608
 30
0.0
 11
143.51011476071849
 21
162.2495668157608
 31
0.0
  0
INSERT
  5
109
  8
LINES
  2
*U22
 10
0.0
 20
0.0
 30
0.0
  0
SOLID
  5
10A
  8
LINES
 62
     1
 10
136.7418709062093
 20
162.3120668157608
 30
0.0
 11
136.7418709062093
 21
162.1870668157608
 31
0.0
 12
136.3668709062093
 22
162.2495668157608
 32
0.0
 13
136.3668709062093
 23
162.2495668157608
 33
0.0
  0
SOLID
  5
10B
  8
LINES
 62
     1
 10
143.51011476071849
 20
162.3120668157608
 30
0.0
 11
143.51011476071849
 21
162.1870668157608
 31
0.0
 12
143.88511476071849
 22
162.2495668157608
 32
0.0
 13
143.88511476071849
 23
162.2495668157608
 33
0.0
  0
POINT
  5
10C
  8
DEFPOINTS
 62
     0
 10
136.3668709062093
 20
165.64785307324689
 30
0.0
  0
POINT
  5
10D
  8
DEFPOINTS
 62
     0
 10
143.88511476071849
 20
165.64785307324681
 30
0.0
  0
POINT
  5
10E
  8
DEFPOINTS
 62
     0
 10
143.88511476071849
 20
162.2495668157608
 30
0.0
  0
ENDBLK
  5
D9
  8
0
  0
BLOCK
  8
0
  2
*D13
 70
     1
 10
0.0
 20
0.0
 30
0.0
  3
*D13
  1

  0
LINE
  5
154
  8
LINES
 62
     1
 10
147.75992466002211
 20
163.1706905303223
 30
0.0
 11
148.34754889066451
 21
163.91879918371771
 31
0.0
  0
LINE
  5
155
  8
LINES
 62
     1
 10
140.28041971535251
 20
169.04569053032219
 30
0.0
 11
140.868043945995
 21
169.7937991837176
 31
0.0
  0
LINE
  5
156
  8
LINES
 62
     1
 10
147.8982190402628
 20
163.95383752754199
 30
0.0
 11
141.0085200326194
 21
169.3655568818759
 31
0.0
  0
SOLID
  5
157
  8
LINES
 62
     1
 10
147.93682576073499
 20
164.00298802229409
 30
0.0
 11
147.8596123197907
 21
163.90468703278981
 31
0.0
 12
148.1931220087759
 22
163.722197204709
 32
0.0
 13
148.1931220087759
 23
163.722197204709
 33
0.0
  0
SOLID
  5
158
  8
LINES
 62
     1
 10
141.04712675309159
 20
169.41470737662809
 30
0.0
 11
140.96991331214721
 21
169.31640638712369
 31
0.0
 12
140.7136170641063
 22
169.59719720470889
 32
0.0
 13
140.7136170641063
 23
169.59719720470889
 33
0.0
  0
INSERT
  5
159
  8
LINES
  2
*U27
 10
0.0
 20
0.0
 30
0.0
  0
POINT
  5
15A
  8
DEFPOINTS
 62
     0
 10
147.60549777813341
 20
162.9740885513136
 30
0.0
  0
POINT
  5
15B
  8
DEFPOINTS
 62
     0
 10
140.1259928334639
 20
168.84908855131351
 30
0.0
  0
POINT
  5
15C
  8
DEFPOINTS
 62
     0
 10
140.7136170641063
 20
169.59719720470889
 30
0.0
  0
ENDBLK
  5
EF
  8
0
  0
BLOCK
  8
0
  2
*D14
 70
     1
 10
0.0
 20
0.0
 30
0.0
  3
*D14
  1

  0
LINE
  5
16D
  8
LINES
 62
     1
 10
140.30301123008761
 20
155.29755388826749
 30
0.0
 11
142.1631953894053
 21
153.44245300591911
 31
0.0
  0
LINE
  5
16E
  8
LINES
 62
     1
 10
147.78251617475721
 20
162.7975538882676
 30
0.0
 11
149.6427003340749
 21
160.9424530059193
 31
0.0
  0
LINE
  5
16F
  8
LINES
 62
     1
 10
142.25097898735049
 20
153.88451526390071
 30
0.0
 11
149.20087994288221
 21
160.85346007402961
 31
0.0
  0
SOLID
  5
170
  8
LINES
 62
     1
 10
142.2067243881946
 20
153.9286489296623
 30
0.0
 11
142.2952335865065
 21
153.8403815981392
 31
0.0
 12
141.98617699278151
 22
153.6189876689651
 32
0.0
 13
141.98617699278151
 23
153.6189876689651
 33
0.0
  0
SOLID
  5
171
  8
LINES
 62
     1
 10
149.15662534372629
 20
160.89759373979109
 30
0.0
 11
149.2451345420381
 21
160.80932640826811
 31
0.0
 12
149.46568193745119
 22
161.11898766896519
 32
0.0
 13
149.46568193745119
 23
161.11898766896519
 33
0.0
  0
INSERT
  5
172
  8
LINES
  2
*U28
 10
0.0
 20
0.0
 30
0.0
  0
POINT
  5
173
  8
DEFPOINTS
 62
     0
 10
140.12599283346381
 20
155.47408855131351
 30
0.0
  0
POINT
  5
174
  8
DEFPOINTS
 62
     0
 10
147.60549777813341
 20
162.9740885513136
 30
0.0
  0
POINT
  5
175
  8
DEFPOINTS
 62
     0
 10
149.46568193745119
 20
161.11898766896519
 30
0.0
  0
ENDBLK
  5
FC
  8
0
  0
BLOCK
  8
0
  2
*D15
 70
     1
 10
0.0
 20
0.0
 30
0.0
  3
*D15
  1

  0
LINE
  5
110
  8
LINES
 62
     1
 10
151.60071114954121
 20
155.4740885513134
 30
0.0
 11
151.54265631435109
 21
155.4740885513134
 31
0.0
  0
LINE
  5
111
  8
LINES
 62
     1
 10
147.85549777813341
 20
162.97408855131351
 30
0.0
 11
152.04265631435109
 21
162.97408855131351
 31
0.0
  0
LINE
  5
112
  8
LINES
 62
     1
 10
151.79265631435109
 20
155.8490885513134
 30
0.0
 11
151.79265631435109
 21
162.59908855131351
 31
0.0
  0
SOLID
  5
113
  8
LINES
 62
     1
 10
151.73015631435109
 20
155.8490885513134
 30
0.0
 11
151.85515631435109
 21
155.8490885513134
 31
0.0
 12
151.79265631435109
 22
155.4740885513134
 32
0.0
 13
151.79265631435109
 23
155.4740885513134
 33
0.0
  0
SOLID
  5
114
  8
LINES
 62
     1
 10
151.73015631435109
 20
162.59908855131351
 30
0.0
 11
151.85515631435109
 21
162.59908855131351
 31
0.0
 12
151.79265631435109
 22
162.97408855131351
 32
0.0
 13
151.79265631435109
 23
162.97408855131351
 33
0.0
  0
INSERT
  5
115
  8
LINES
  2
*U23
 10
0.0
 20
0.0
 30
0.0
  0
POINT
  5
116
  8
DEFPOINTS
 62
     0
 10
151.85071114954121
 20
155.4740885513134
 30
0.0
  0
POINT
  5
117
  8
DEFPOINTS
 62
     0
 10
147.60549777813341
 20
162.97408855131351
 30
0.0
  0
POINT
  5
118
  8
DEFPOINTS
 62
     0
 10
151.79265631435109
 20
162.97408855131351
 30
0.0
  0
ENDBLK
  5
11A
  8
0
  0
BLOCK
  8
0
  2
*D16
 70
     1
 10
0.0
 20
0.0
 30
0.0
  3
*D16
  1

  0
LINE
  5
11C
  8
LINES
 62
     1
 10
149.77851973569739
 20
168.84908855131351
 30
0.0
 11
153.66819020435369
 21
168.84908855131351
 31
0.0
  0
LINE
  5
11D
  8
LINES
 62
     1
 10
140.37599283346381
 20
155.4740885513134
 30
0.0
 11
153.66819020435369
 21
155.4740885513134
 31
0.0
  0
LINE
  5
11E
  8
LINES
 62
     1
 10
153.41819020435369
 20
168.47408855131351
 30
0.0
 11
153.41819020435369
 21
155.8490885513134
 31
0.0
  0
SOLID
  5
11F
  8
LINES
 62
     1
 10
153.35569020435369
 20
168.47408855131351
 30
0.0
 11
153.48069020435369
 21
168.47408855131351
 31
0.0
 12
153.41819020435369
 22
168.84908855131351
 32
0.0
 13
153.41819020435369
 23
168.84908855131351
 33
0.0
  0
SOLID
  5
120
  8
LINES
 62
     1
 10
153.35569020435369
 20
155.8490885513134
 30
0.0
 11
153.48069020435369
 21
155.8490885513134
 31
0.0
 12
153.41819020435369
 22
155.4740885513134
 32
0.0
 13
153.41819020435369
 23
155.4740885513134
 33
0.0
  0
TEXT
  5
121
  8
LINES
 62
     4
 10
152.88247591863939
 20
161.0455171227421
 30
0.0
 40
0.375
  1
13 3/8"
 50
90.0
  7
KITE
  0
POINT
  5
122
  8
DEFPOINTS
 62
     0
 10
149.52851973569739
 20
168.84908855131351
 30
0.0
  0
POINT
  5
123
  8
DEFPOINTS
 62
     0
 10
140.12599283346381
 20
155.4740885513134
 30
0.0
  0
POINT
  5
124
  8
DEFPOINTS
 62
     0
 10
153.41819020435369
 20
155.4740885513134
 30
0.0
  0
ENDBLK
  5
126
  8
0
  0
BLOCK
  8
0
  2
*D17
 70
     1
 10
0.0
 20
0.0
 30
0.0
  3
*D17
  1

  0
LINE
  5
128
  8
LINES
 62
     1
 10
140.37599283346381
 20
159.22408855131351
 30
0.0
 11
150.0107389518478
 21
159.22408855131351
 31
0.0
  0
LINE
  5
129
  8
LINES
 62
     1
 10
149.66241018992719
 20
155.4740885513134
 30
0.0
 11
150.0107389518478
 21
155.4740885513134
 31
0.0
  0
LINE
  5
12A
  8
LINES
 62
     1
 10
149.7607389518478
 20
158.84908855131351
 30
0.0
 11
149.7607389518478
 21
155.8490885513134
 31
0.0
  0
SOLID
  5
12B
  8
LINES
 62
     1
 10
149.6982389518478
 20
158.84908855131351
 30
0.0
 11
149.8232389518478
 21
158.84908855131351
 31
0.0
 12
149.7607389518478
 22
159.22408855131351
 32
0.0
 13
149.7607389518478
 23
159.22408855131351
 33
0.0
  0
SOLID
  5
12C
  8
LINES
 62
     1
 10
149.6982389518478
 20
155.8490885513134
 30
0.0
 11
149.8232389518478
 21
155.8490885513134
 31
0.0
 12
149.7607389518478
 22
155.4740885513134
 32
0.0
 13
149.7607389518478
 23
155.4740885513134
 33
0.0
  0
INSERT
  5
12D
  8
LINES
  2
*U24
 10
0.0
 20
0.0
 30
0.0
  0
POINT
  5
12E
  8
DEFPOINTS
 62
     0
 10
140.12599283346381
 20
159.22408855131351
 30
0.0
  0
POINT
  5
12F
  8
DEFPOINTS
 62
     0
 10
149.41241018992719
 20
155.4740885513134
 30
0.0
  0
POINT
  5
130
  8
DEFPOINTS
 62
     0
 10
149.7607389518478
 20
155.4740885513134
 30
0.0
  0
ENDBLK
  5
132
  8
0
  0
BLOCK
  8
0
  2
*D18
 70
     1
 10
0.0
 20
0.0
 30
0.0
  3
*D18
  1

  0
LINE
  5
134
  8
LINES
 62
     1
 10
132.6464878887943
 20
163.22408855131351
 30
0.0
 11
132.6464878887943
 21
170.13385978717039
 31
0.0
  0
LINE
  5
135
  8
LINES
 62
     1
 10
147.60549777813341
 20
163.22408855131351
 30
0.0
 11
147.60549777813341
 21
170.13385978717039
 31
0.0
  0
LINE
  5
136
  8
LINES
 62
     1
 10
133.0214878887943
 20
169.88385978717039
 30
0.0
 11
147.23049777813341
 21
169.88385978717039
 31
0.0
  0
SOLID
  5
137
  8
LINES
 62
     1
 10
133.0214878887943
 20
169.94635978717039
 30
0.0
 11
133.0214878887943
 21
169.82135978717039
 31
0.0
 12
132.6464878887943
 22
169.88385978717039
 32
0.0
 13
132.6464878887943
 23
169.88385978717039
 33
0.0
  0
SOLID
  5
138
  8
LINES
 62
     1
 10
147.23049777813341
 20
169.94635978717039
 30
0.0
 11
147.23049777813341
 21
169.82135978717039
 31
0.0
 12
147.60549777813341
 22
169.88385978717039
 32
0.0
 13
147.60549777813341
 23
169.88385978717039
 33
0.0
  0
TEXT
  5
139
  8
LINES
 62
     4
 10
139.7331356906067
 20
170.2945740728847
 30
0.0
 40
0.375
  1
15"
  7
KITE
  0
POINT
  5
13A
  8
DEFPOINTS
 62
     0
 10
132.6464878887943
 20
162.97408855131351
 30
0.0
  0
POINT
  5
13B
  8
DEFPOINTS
 62
     0
 10
147.60549777813341
 20
162.97408855131351
 30
0.0
  0
POINT
  5
13C
  8
DEFPOINTS
 62
     0
 10
147.60549777813341
 20
169.88385978717039
 30
0.0
  0
ENDBLK
  5
13E
  8
0
  0
BLOCK
  8
0
  2
*D19
 70
     1
 10
0.0
 20
0.0
 30
0.0
  3
*D19
  1

  0
LINE
  5
149
  8
LINES
 62
     1
 10
140.37599283346381
 20
168.84908855131351
 30
0.0
 11
149.77851973569739
 21
168.84908855131351
 31
0.0
  0
LINE
  5
14A
  8
LINES
 62
     1
 10
140.37599283346381
 20
166.47408855131351
 30
0.0
 11
149.77851973569739
 21
166.47408855131351
 31
0.0
  0
LINE
  5
14B
  8
LINES
 62
     1
 10
149.52851973569739
 20
168.47408855131351
 30
0.0
 11
149.52851973569739
 21
166.84908855131351
 31
0.0
  0
SOLID
  5
14C
  8
LINES
 62
     1
 10
149.46601973569739
 20
168.47408855131351
 30
0.0
 11
149.59101973569739
 21
168.47408855131351
 31
0.0
 12
149.52851973569739
 22
168.84908855131351
 32
0.0
 13
149.52851973569739
 23
168.84908855131351
 33
0.0
  0
SOLID
  5
14D
  8
LINES
 62
     1
 10
149.46601973569739
 20
166.84908855131351
 30
0.0
 11
149.59101973569739
 21
166.84908855131351
 31
0.0
 12
149.52851973569739
 22
166.47408855131351
 32
0.0
 13
149.52851973569739
 23
166.47408855131351
 33
0.0
  0
INSERT
  5
14E
  8
LINES
  2
*U26
 10
0.0
 20
0.0
 30
0.0
  0
POINT
  5
14F
  8
DEFPOINTS
 62
     0
 10
140.12599283346381
 20
168.84908855131351
 30
0.0
  0
POINT
  5
150
  8
DEFPOINTS
 62
     0
 10
140.12599283346381
 20
166.47408855131351
 30
0.0
  0
POINT
  5
151
  8
DEFPOINTS
 62
     0
 10
149.52851973569739
 20
166.47408855131351
 30
0.0
  0
ENDBLK
  5
153
  8
0
  0
BLOCK
  8
0
  2
*D20
 70
     1
 10
0.0
 20
0.0
 30
0.0
  3
*D20
  1

  0
LINE
  5
176
  8
LINES
 62
     1
 10
140.12599283346381
 20
164.21836638208731
 30
0.0
 11
140.12599283346381
 21
164.39235145009121
 31
0.0
  0
LINE
  5
177
  8
LINES
 62
     1
 10
141.12599283346381
 20
164.97340044665839
 30
0.0
 11
141.12599283346381
 21
163.89235145009121
 31
0.0
  0
LINE
  5
178
  8
LINES
 62
     1
 10
139.7509928334639
 20
164.14235145009121
 30
0.0
 11
139.37599283346381
 21
164.14235145009121
 31
0.0
  0
LINE
  5
179
  8
LINES
 62
     1
 10
141.50099283346381
 20
164.14235145009121
 30
0.0
 11
141.8759928334639
 21
164.14235145009121
 31
0.0
  0
TEXT
  5
17A
  8
LINES
 62
     4
 10
140.46147395492741
 20
164.44966627354549
 30
0.0
 40
0.375
  1
1"
  7
KITE
  0
SOLID
  5
17B
  8
LINES
 62
     1
 10
139.7509928334639
 20
164.20485145009121
 30
0.0
 11
139.7509928334639
 21
164.07985145009121
 31
0.0
 12
140.12599283346381
 22
164.14235145009121
 32
0.0
 13
140.12599283346381
 23
164.14235145009121
 33
0.0
  0
SOLID
  5
17C
  8
LINES
 62
     1
 10
141.50099283346381
 20
164.20485145009121
 30
0.0
 11
141.50099283346381
 21
164.07985145009121
 31
0.0
 12
141.12599283346381
 22
164.14235145009121
 32
0.0
 13
141.12599283346381
 23
164.14235145009121
 33
0.0
  0
POINT
  5
17D
  8
DEFPOINTS
 62
     0
 10
140.12599283346381
 20
163.96836638208731
 30
0.0
  0
POINT
  5
17E
  8
DEFPOINTS
 62
     0
 10
141.12599283346381
 20
165.2234004466583
 30
0.0
  0
POINT
  5
17F
  8
DEFPOINTS
 62
     0
 10
141.12599283346381
 20
164.14235145009121
 30
0.0
  0
ENDBLK
  5
169
  8
0
  0
BLOCK
  8
0
  2
*D21
 70
     1
 10
0.0
 20
0.0
 30
0.0
  3
*D21
  1

  0
LINE
  5
182
  8
LINES
 62
     1
 10
139.96390496115669
 20
169.03942383876941
 30
0.0
 11
138.85400488994151
 21
170.34274867174491
 31
0.0
  0
LINE
  5
183
  8
LINES
 62
     1
 10
136.20478303390209
 20
165.83818836070279
 30
0.0
 11
135.09488296268691
 21
167.14151319367829
 31
0.0
  0
LINE
  5
184
  8
LINES
 62
     1
 10
138.7305898310648
 20
169.9092815758282
 30
0.0
 11
135.54247376617801
 21
167.19430971468319
 31
0.0
  0
SOLID
  5
185
  8
LINES
 62
     1
 10
138.690067862988
 20
169.95686539769221
 30
0.0
 11
138.77111179914161
 21
169.86169775396431
 31
0.0
 12
139.0160927622486
 22
170.15241338428899
 32
0.0
 13
139.0160927622486
 23
170.15241338428899
 33
0.0
  0
SOLID
  5
186
  8
LINES
 62
     1
 10
135.5019517981012
 20
167.2418935365472
 30
0.0
 11
135.58299573425481
 21
167.14672589281921
 31
0.0
 12
135.25697083499409
 22
166.9511779062224
 32
0.0
 13
135.25697083499409
 23
166.9511779062224
 33
0.0
  0
INSERT
  5
187
  8
LINES
  2
*U29
 10
0.0
 20
0.0
 30
0.0
  0
POINT
  5
188
  8
DEFPOINTS
 62
     0
 10
140.12599283346381
 20
168.84908855131351
 30
0.0
  0
POINT
  5
189
  8
DEFPOINTS
 62
     0
 10
136.3668709062093
 20
165.64785307324689
 30
0.0
  0
POINT
  5
18A
  8
DEFPOINTS
 62
     0
 10
135.25697083499409
 20
166.9511779062224
 30
0.0
  0
ENDBLK
  5
18C
  8
0
  0
BLOCK
  8
0
  2
*U22
 70
     1
 10
0.0
 20
0.0
 30
0.0
  3
*U22
  1

  0
TEXT
  5
194
  8
LINES
 62
     4
 10
140.6769220382042
 20
162.89252392614611
 30
0.0
 40
0.375
  1
7
  7
KITE
  0
TEXT
  5
195
  8
LINES
 62
     4
 10
141.06977918106139
 20
163.14252392614611
 30
0.0
 40
0.375
  1
17
  7
KITE
  0
LINE
  5
196
  8
LINES
 10
141.03406489534709
 20
163.08002392614611
 30
0.0
 11
141.64120775248989
 21
163.08002392614611
 31
0.0
  0
TEXT
  5
197
  8
LINES
 62
     4
 10
141.03406489534709
 20
162.64252392614611
 30
0.0
 40
0.375
  1
32
  7
KITE
  0
TEXT
  5
198
  8
LINES
 62
     4
 10
141.74835060963281
 20
162.89252392614611
 30
0.0
 40
0.375
  1
"
  7
KITE
  0
ENDBLK
  5
19A
  8
0
  0
BLOCK
  8
0
  2
*U23
 70
     1
 10
0.0
 20
0.0
 30
0.0
  3
*U23
  1

  0
TEXT
  5
19C
  8
LINES
 62
     4
 10
151.16765631435109
 20
158.79551712274201
 30
0.0
 40
0.375
  1
7
 50
90.0
  7
KITE
  0
TEXT
  5
19D
  8
LINES
 62
     4
 10
150.91765631435109
 20
159.23301712274201
 30
0.0
 40
0.375
  1
1
 50
90.0
  7
KITE
  0
LINE
  5
19E
  8
LINES
 10
150.98015631435109
 20
159.1526599798849
 30
0.0
 11
150.98015631435109
 21
159.4026599798849
 31
0.0
  0
TEXT
  5
19F
  8
LINES
 62
     4
 10
151.41765631435109
 20
159.1526599798849
 30
0.0
 40
0.375
  1
2
 50
90.0
  7
KITE
  0
TEXT
  5
1A0
  8
LINES
 62
     4
 10
151.16765631435109
 20
159.50980283702779
 30
0.0
 40
0.375
  1
"
 50
90.0
  7
KITE
  0
ENDBLK
  5
1A2
  8
0
  0
BLOCK
  8
0
  2
*U24
 70
     1
 10
0.0
 20
0.0
 30
0.0
  3
*U24
  1

  0
TEXT
  5
1A4
  8
LINES
 62
     4
 10
149.13573895184771
 20
156.91158855131351
 30
0.0
 40
0.375
  1
3
 50
90.0
  7
KITE
  0
TEXT
  5
1A5
  8
LINES
 62
     4
 10
148.8857389518478
 20
157.2776599798849
 30
0.0
 40
0.375
  1
3
 50
90.0
  7
KITE
  0
LINE
  5
1A6
  8
LINES
 10
148.9482389518478
 20
157.26873140845629
 30
0.0
 11
148.9482389518478
 21
157.53658855131351
 31
0.0
  0
TEXT
  5
1A7
  8
LINES
 62
     4
 10
149.3857389518478
 20
157.26873140845629
 30
0.0
 40
0.375
  1
4
 50
90.0
  7
KITE
  0
TEXT
  5
1A8
  8
LINES
 62
     4
 10
149.13573895184771
 20
157.64373140845629
 30
0.0
 40
0.375
  1
"
 50
90.0
  7
KITE
  0
ENDBLK
  5
1AA
  8
0
  0
BLOCK
  8
0
  2
*U25
 70
     1
 10
0.0
 20
0.0
 30
0.0
  3
*U25
  1

  0
TEXT
  5
1AC
  8
LINES
 62
     4
 10
133.18696519858651
 20
165.31824047804719
 30
0.0
 40
0.375
  1
4
 50
38.736780004588731
  7
KITE
  0
TEXT
  5
1AD
  8
LINES
 62
     4
 10
133.30911106486431
 20
165.7367275241543
 30
0.0
 40
0.375
  1
5
 50
38.736780004588731
  7
KITE
  0
LINE
  5
1AE
  8
LINES
 10
133.3482200342936
 20
165.6879757189551
 30
0.0
 11
133.5432272550903
 21
165.84441159667239
 31
0.0
  0
TEXT
  5
1AF
  8
LINES
 62
     4
 10
133.62198282029891
 20
165.346713082561
 30
0.0
 40
0.375
  1
8
 50
38.736780004588731
  7
KITE
  0
TEXT
  5
1B0
  8
LINES
 62
     4
 10
133.7441286865768
 20
165.76520012866811
 30
0.0
 40
0.375
  1
"
 50
38.736780004588731
  7
KITE
  0
ENDBLK
  5
1B2
  8
0
  0
BLOCK
  8
0
  2
*U26
 70
     1
 10
0.0
 20
0.0
 30
0.0
  3
*U26
  1

  0
TEXT
  5
1B4
  8
LINES
 62
     4
 10
148.9035197356973
 20
167.2330171227421
 30
0.0
 40
0.375
  1
2
 50
90.0
  7
KITE
  0
TEXT
  5
1B5
  8
LINES
 62
     4
 10
148.6535197356973
 20
167.59015997988499
 30
0.0
 40
0.375
  1
3
 50
90.0
  7
KITE
  0
LINE
  5
1B6
  8
LINES
 10
148.7160197356973
 20
167.59015997988499
 30
0.0
 11
148.7160197356973
 21
167.84015997988499
 31
0.0
  0
TEXT
  5
1B7
  8
LINES
 62
     4
 10
149.1535197356973
 20
167.59015997988499
 30
0.0
 40
0.375
  1
8
 50
90.0
  7
KITE
  0
TEXT
  5
1B8
  8
LINES
 62
     4
 10
148.9035197356973
 20
167.94730283702779
 30
0.0
 40
0.375
  1
"
 50
90.0
  7
KITE
  0
ENDBLK
  5
1BA
  8
0
  0
BLOCK
  8
0
  2
*U27
 70
     1
 10
0.0
 20
0.0
 30
0.0
  3
*U27
  1

  0
TEXT
  5
1BC
  8
LINES
 62
     4
 10
144.50240477714789
 20
167.41593394975419
 30
0.0
 40
0.375
  1
9
 50
321.85108142624182
  7
KITE
  0
TEXT
  5
1BD
  8
LINES
 62
     4
 10
145.00088512230181
 20
167.34228888545769
 30
0.0
 40
0.375
  1
1
 50
321.85108142624182
  7
KITE
  0
LINE
  5
1BE
  8
LINES
 10
144.89908490857681
 20
167.3427756027412
 30
0.0
 11
145.09568688758549
 21
167.1883487208525
 31
0.0
  0
TEXT
  5
1BF
  8
LINES
 62
     4
 10
144.62883786527169
 20
166.99872213947589
 30
0.0
 40
0.375
  1
2
 50
321.85108142624182
  7
KITE
  0
TEXT
  5
1C0
  8
LINES
 62
     4
 10
145.0641247171728
 20
166.97471428721511
 30
0.0
 40
0.375
  1
"
 50
321.85108142624182
  7
KITE
  0
ENDBLK
  5
1C2
  8
0
  0
BLOCK
  8
0
  2
*U28
 70
     1
 10
0.0
 20
0.0
 30
0.0
  3
*U28
  1

  0
TEXT
  5
1C9
  8
LINES
 62
     4
 10
144.753779484419
 20
157.27926913670879
 30
0.0
 40
0.375
  1
10
 50
45.078392406352272
  7
KITE
  0
TEXT
  5
1CA
  8
LINES
 62
     4
 10
145.06223141117169
 20
157.94260439047011
 30
0.0
 40
0.375
  1
19
 50
45.078392406352272
  7
KITE
  0
LINE
  5
1CB
  8
LINES
 10
145.07496196335521
 20
157.8668602967401
 30
0.0
 11
145.50368900218109
 21
158.29676211711211
 31
0.0
  0
TEXT
  5
1CC
  8
LINES
 62
     4
 10
145.3847441574467
 20
157.55792463640961
 30
0.0
 40
0.375
  1
32
 50
45.078392406352272
  7
KITE
  0
TEXT
  5
1CD
  8
LINES
 62
     4
 10
145.71211051238291
 20
158.24022614695201
 30
0.0
 40
0.375
  1
"
 50
45.078392406352272
  7
KITE
  0
ENDBLK
  5
1CF
  8
0
  0
BLOCK
  8
0
  2
*U29
 70
     1
 10
0.0
 20
0.0
 30
0.0
  3
*U29
  1

  0
TEXT
  5
1D1
  8
LINES
 62
     4
 10
136.2962600322399
 20
168.65714729862199
 30
0.0
 40
0.375
  1
4
 50
40.41742623069166
  7
KITE
  0
TEXT
  5
1D2
  8
LINES
 62
     4
 10
136.40607971344119
 20
169.07903668937391
 30
0.0
 40
0.375
  1
15
 50
40.41742623069166
  7
KITE
  0
LINE
  5
1D3
  8
LINES
 10
136.44660168151799
 20
169.0314528675099
 30
0.0
 11
136.85446301178069
 21
169.37878402245391
 31
0.0
  0
TEXT
  5
1D4
  8
LINES
 62
     4
 10
136.7370531468932
 20
168.70415496704439
 30
0.0
 40
0.375
  1
16
 50
40.41742623069166
  7
KITE
  0
TEXT
  5
1D5
  8
LINES
 62
     4
 10
137.05760118206359
 20
169.30549878785069
 30
0.0
 40
0.375
  1
"
 50
40.41742623069166
  7
KITE
  0
ENDBLK
  5
1D7
  8
0
  0
ENDSEC
  0
SECTION
  2
ENTITIES
  0
INSERT
  5
84
  8
LINES
  2
WMF2
 10
85.298486999130461
 20
44.886317863501901
 30
0.0
  0
LINE
  5
85
  8
LINES
 10
140.12599283346381
 20
168.84908855131351
 30
0.0
 11
140.12599283346381
 21
155.4740885513134
 31
0.0
  0
LINE
  5
86
  8
LINES
 10
132.64648788879421
 20
162.97408855131351
 30
0.0
 11
140.12599283346381
 21
155.47408855131351
 31
0.0
  0
LINE
  5
87
  8
LINES
 10
140.12599283346381
 20
155.4740885513134
 30
0.0
 11
147.60549777813341
 21
162.9740885513136
 31
0.0
  0
LINE
  5
88
  8
LINES
 10
139.0142922353422
 20
166.47408855131351
 30
0.0
 11
141.09687154897901
 21
166.47408855131351
 31
0.0
  0
LINE
  5
89
  8
LINES
 10
141.12599283346381
 20
167.35221925249559
 30
0.0
 11
141.12599283346381
 21
165.2234004466583
 31
0.0
  0
LINE
  5
8A
  8
LINES
 10
139.1259928334639
 20
167.35221925249559
 30
0.0
 11
139.1259928334639
 21
165.2234004466583
 31
0.0
  0
POINT
  5
8C
  8
LINES
 10
140.12599283346381
 20
159.22408855131351
 30
0.0
  0
DIMENSION
  5
8D
  8
LINES
  2
*D18
 10
147.60549777813341
 20
169.88385978717039
 30
0.0
 11
140.12599283346381
 21
170.4820740728847
 31
0.0
 70
     0
  1
15"
 13
132.6464878887943
 23
162.97408855131351
 33
0.0
 14
147.60549777813341
 24
162.97408855131351
 34
0.0
1001
ACAD
1000
DSTYLE
1002
{
1070
    40
1040
4.0
1070
    41
1040
0.09375
1070
    78
1070
     3
1070
   142
1040
0.0
1070
   179
1070
     4
1070
   340
1005
2E
1002
}
  0
DIMENSION
  5
8E
  8
LINES
  2
*D19
 10
149.52851973569739
 20
166.47408855131351
 30
0.0
 11
148.7160197356973
 21
167.66158855131351
 31
0.0
 70
     0
 13
140.12599283346381
 23
168.84908855131351
 33
0.0
 14
140.12599283346381
 24
166.47408855131351
 34
0.0
 50
90.0
1001
ACAD
1000
DSTYLE
1002
{
1070
    40
1040
4.0
1070
    41
1040
0.09375
1070
    78
1070
     3
1070
   142
1040
0.0
1070
   179
1070
     4
1070
   340
1005
2E
1002
}
  0
DIMENSION
  5
8F
  8
LINES
  2
*D16
 10
153.41819020435369
 20
155.4740885513134
 30
0.0
 11
152.75747591863939
 21
162.16158855131351
 31
0.0
 70
     0
  1
13 3/8"
 13
149.52851973569739
 23
168.84908855131351
 33
0.0
 14
140.12599283346381
 24
155.4740885513134
 34
0.0
 50
90.0
1001
ACAD
1000
DSTYLE
1002
{
1070
    40
1040
4.0
1070
    41
1040
0.09375
1070
    78
1070
     3
1070
   142
1040
0.0
1070
   179
1070
     4
1070
   340
1005
2E
1002
}
  0
DIMENSION
  5
90
  8
LINES
  2
*D15
 10
151.79265631435109
 20
162.97408855131351
 30
0.0
 11
150.98015631435109
 21
159.22408855131351
 31
0.0
 70
     0
 13
151.85071114954121
 23
155.4740885513134
 33
0.0
 14
147.60549777813341
 24
162.97408855131351
 34
0.0
 50
90.0
1001
ACAD
1000
DSTYLE
1002
{
1070
    40
1040
4.0
1070
    41
1040
0.09375
1070
    78
1070
     3
1070
   142
1040
0.0
1070
   179
1070
     4
1070
   340
1005
2E
1002
}
  0
DIMENSION
  5
91
  8
LINES
  2
*D17
 10
149.7607389518478
 20
155.4740885513134
 30
0.0
 11
148.9482389518478
 21
157.34908855131351
 31
0.0
 70
     0
 13
140.12599283346381
 23
159.22408855131351
 33
0.0
 14
149.41241018992719
 24
155.4740885513134
 34
0.0
 50
90.0
1001
ACAD
1000
DSTYLE
1002
{
1070
    40
1040
4.0
1070
    41
1040
0.09375
1070
    78
1070
     3
1070
   142
1040
0.0
1070
   179
1070
     4
1070
   340
1005
2E
1002
}
  0
DIMENSION
  5
92
  8
LINES
  2
*D20
 10
141.12599283346381
 20
164.14235145009121
 30
0.0
 11
140.67575966921319
 21
164.63716627354549
 31
0.0
 70
   128
 13
140.12599283346381
 23
163.96836638208731
 33
0.0
 14
141.12599283346381
 24
165.2234004466583
 34
0.0
1001
ACAD
1000
DSTYLE
1002
{
1070
    40
1040
4.0
1070
    41
1040
0.09375
1070
    78
1070
     3
1070
   142
1040
0.0
1070
   179
1070
     4
1070
   340
1005
2E
1002
}
  0
LINE
  5
A8
  8
LINES
 10
136.3668709062091
 20
165.64785307324681
 30
0.0
 11
140.12599283346381
 21
168.84908855131351
 31
0.0
  0
LINE
  5
A9
  8
LINES
 10
143.88511476071849
 20
165.64785307324681
 30
0.0
 11
140.12599283346381
 21
168.84908855131351
 31
0.0
  0
LINE
  5
AE
  8
LINES
 10
147.463324738963
 20
163.0970545240487
 30
0.0
 11
147.6403080434705
 21
163.2745227914842
 31
0.0
  0
LINE
  5
AF
  8
LINES
 10
132.78866092796471
 20
163.0970545240487
 30
0.0
 11
132.61167623400911
 21
163.2745241847397
 31
0.0
  0
LINE
  5
B7
  8
LINES
 10
187.0334811989996
 20
169.02129955395611
 30
0.0
 11
188.02409623282489
 21
169.02129955395611
 31
0.0
  0
POLYLINE
  8
0
  5
1D8
  66
     1
 10
0.000000
 20
0.000000
 30
0.000000
  70
     8
  0
VERTEX
  8
0
  5
1D9
 10
147.605
 20
162.974
 30
0.000000
  70
    32
  0
VERTEX
  8
0
  5
1DA
 10
147.547
 20
163.024
 30
0.000000
  70
    32
  0
VERTEX
  8
0
  5
1DB
 10
147.489
 20
163.074
 30
0.000000
  70
    32
  0
VERTEX
  8
0
  5
1DC
 10
147.431
 20
163.125
 30
0.000000
  70
    32
  0
VERTEX
  8
0
  5
1DD
 10
147.373
 20
163.175
 30
0.000000
  70
    32
  0
VERTEX
  8
0
  5
1DE
 10
147.315
 20
163.225
 30
0.000000
  70
    32
  0
VERTEX
  8
0
  5
1DF
 10
147.257
 20
163.275
 30
0.000000
  70
    32
  0
VERTEX
  8
0
  5
1E0
 10
147.199
 20
163.325
 30
0.000000
  70
    32
  0
VERTEX
  8
0
  5
1E1
 10
147.141
 20
163.375
 30
0.000000
  70
    32
  0
VERTEX
  8
0
  5
1E2
 10
147.083
 20
163.425
 30
0.000000
  70
    32
  0
VERTEX
  8
0
  5
1E3
 10
147.024
 20
163.474
 30
0.000000
  70
    32
  0
VERTEX
  8
0
  5
1E4
 10
146.966
 20
163.524
 30
0.000000
  70
    32
  0
VERTEX
  8
0
  5
1E5
 10
146.908
 20
163.574
 30
0.000000
  70
    32
  0
VERTEX
  8
0
  5
1E6
 10
146.849
 20
163.623
 30
0.000000
  70
    32
  0
VERTEX
  8
0
  5
1E7
 10
146.791
 20
163.672
 30
0.000000
  70
    32
  0
VERTEX
  8
0
  5
1E8
 10
146.732
 20
163.721
 30
0.000000
  70
    32
  0
VERTEX
  8
0
  5
1E9
 10
146.673
 20
163.770
 30
0.000000
  70
    32
  0
VERTEX
  8
0
  5
1EA
 10
146.615
 20
163.819
 30
0.000000
  70
    32
  0
VERTEX
  8
0
  5
1EB
 10
146.556
 20
163.868
 30
0.000000
  70
    32
  0
VERTEX
  8
0
  5
1EC
 10
146.497
 20
163.916
 30
0.000000
  70
    32
  0
VERTEX
  8
0
  5
1ED
 10
146.438
 20
163.965
 30
0.000000
  70
    32
  0
VERTEX
  8
0
  5
1EE
 10
146.379
 20
164.013
 30
0.000000
  70
    32
  0
VERTEX
  8
0
  5
1EF
 10
146.319
 20
164.061
 30
0.000000
  70
    32
  0
VERTEX
  8
0
  5
1F0
 10
146.260
 20
164.108
 30
0.000000
  70
    32
  0
VERTEX
  8
0
  5
1F1
 10
146.200
 20
164.156
 30
0.000000
  70
    32
  0
VERTEX
  8
0
  5
1F2
 10
146.141
 20
164.203
 30
0.000000
  70
    32
  0
VERTEX
  8
0
  5
1F3
 10
146.081
 20
164.250
 30
0.000000
  70
    32
  0
VERTEX
  8
0
  5
1F4
 10
146.021
 20
164.297
 30
0.000000
  70
    32
  0
VERTEX
  8
0
  5
1F5
 10
145.961
 20
164.343
 30
0.000000
  70
    32
  0
VERTEX
  8
0
  5
1F6
 10
145.901
 20
164.389
 30
0.000000
  70
    32
  0
VERTEX
  8
0
  5
1F7
 10
145.840
 20
164.435
 30
0.000000
  70
    32
  0
VERTEX
  8
0
  5
1F8
 10
145.780
 20
164.481
 30
0.000000
  70
    32
  0
VERTEX
  8
0
  5
1F9
 10
145.719
 20
164.526
 30
0.000000
  70
    32
  0
VERTEX
  8
0
  5
1FA
 10
145.658
 20
164.571
 30
0.000000
  70
    32
  0
VERTEX
  8
0
  5
1FB
 10
145.597
 20
164.616
 30
0.000000
  70
    32
  0
VERTEX
  8
0
  5
1FC
 10
145.535
 20
164.660
 30
0.000000
  70
    32
  0
VERTEX
  8
0
  5
1FD
 10
145.474
 20
164.704
 30
0.000000
  70
    32
  0
VERTEX
  8
0
  5
1FE
 10
145.412
 20
164.747
 30
0.000000
  70
    32
  0
VERTEX
  8
0
  5
1FF
 10
145.350
 20
164.791
 30
0.000000
  70
    32
  0
VERTEX
  8
0
  5
200
 10
145.288
 20
164.834
 30
0.000000
  70
    32
  0
VERTEX
  8
0
  5
201
 10
145.226
 20
164.876
 30
0.000000
  70
    32
  0
VERTEX
  8
0
  5
202
 10
145.163
 20
164.918
 30
0.000000
  70
    32
  0
VERTEX
  8
0
  5
203
 10
145.101
 20
164.960
 30
0.000000
  70
    32
  0
VERTEX
  8
0
  5
204
 10
145.038
 20
165.001
 30
0.000000
  70
    32
  0
VERTEX
  8
0
  5
205
 10
144.974
 20
165.042
 30
0.000000
  70
    32
  0
VERTEX
  8
0
  5
206
 10
144.911
 20
165.082
 30
0.000000
  70
    32
  0
VERTEX
  8
0
  5
207
 10
144.847
 20
165.122
 30
0.000000
  70
    32
  0
VERTEX
  8
0
  5
208
 10
144.783
 20
165.162
 30
0.000000
  70
    32
  0
VERTEX
  8
0
  5
209
 10
144.719
 20
165.201
 30
0.000000
  70
    32
  0
VERTEX
  8
0
  5
20A
 10
144.654
 20
165.239
 30
0.000000
  70
    32
  0
VERTEX
  8
0
  5
20B
 10
144.590
 20
165.277
 30
0.000000
  70
    32
  0
VERTEX
  8
0
  5
20C
 10
144.525
 20
165.315
 30
0.000000
  70
    32
  0
VERTEX
  8
0
  5
20D
 10
144.459
 20
165.352
 30
0.000000
  70
    32
  0
VERTEX
  8
0
  5
20E
 10
144.394
 20
165.388
 30
0.000000
  70
    32
  0
VERTEX
  8
0
  5
20F
 10
144.328
 20
165.424
 30
0.000000
  70
    32
  0
VERTEX
  8
0
  5
210
 10
144.261
 20
165.460
 30
0.000000
  70
    32
  0
VERTEX
  8
0
  5
211
 10
144.195
 20
165.495
 30
0.000000
  70
    32
  0
VERTEX
  8
0
  5
212
 10
144.128
 20
165.529
 30
0.000000
  70
    32
  0
VERTEX
  8
0
  5
213
 10
144.061
 20
165.563
 30
0.000000
  70
    32
  0
VERTEX
  8
0
  5
214
 10
143.993
 20
165.596
 30
0.000000
  70
    32
  0
VERTEX
  8
0
  5
215
 10
143.926
 20
165.629
 30
0.000000
  70
    32
  0
VERTEX
  8
0
  5
216
 10
143.857
 20
165.661
 30
0.000000
  70
    32
  0
VERTEX
  8
0
  5
217
 10
143.789
 20
165.692
 30
0.000000
  70
    32
  0
VERTEX
  8
0
  5
218
 10
143.720
 20
165.723
 30
0.000000
  70
    32
  0
VERTEX
  8
0
  5
219
 10
143.651
 20
165.753
 30
0.000000
  70
    32
  0
VERTEX
  8
0
  5
21A
 10
143.582
 20
165.783
 30
0.000000
  70
    32
  0
VERTEX
  8
0
  5
21B
 10
143.512
 20
165.812
 30
0.000000
  70
    32
  0
VERTEX
  8
0
  5
21C
 10
143.442
 20
165.840
 30
0.000000
  70
    32
  0
VERTEX
  8
0
  5
21D
 10
143.372
 20
165.868
 30
0.000000
  70
    32
  0
VERTEX
  8
0
  5
21E
 10
143.301
 20
165.895
 30
0.000000
  70
    32
  0
VERTEX
  8
0
  5
21F
 10
143.230
 20
165.922
 30
0.000000
  70
    32
  0
VERTEX
  8
0
  5
220
 10
143.159
 20
165.948
 30
0.000000
  70
    32
  0
VERTEX
  8
0
  5
221
 10
143.088
 20
165.973
 30
0.000000
  70
    32
  0
VERTEX
  8
0
  5
222
 10
143.016
 20
165.998
 30
0.000000
  70
    32
  0
VERTEX
  8
0
  5
223
 10
142.944
 20
166.022
 30
0.000000
  70
    32
  0
VERTEX
  8
0
  5
224
 10
142.872
 20
166.046
 30
0.000000
  70
    32
  0
VERTEX
  8
0
  5
225
 10
142.799
 20
166.069
 30
0.000000
  70
    32
  0
VERTEX
  8
0
  5
226
 10
142.727
 20
166.091
 30
0.000000
  70
    32
  0
VERTEX
  8
0
  5
227
 10
142.654
 20
166.113
 30
0.000000
  70
    32
  0
VERTEX
  8
0
  5
228
 10
142.581
 20
166.134
 30
0.000000
  70
    32
  0
VERTEX
  8
0
  5
229
 10
142.507
 20
166.154
 30
0.000000
  70
    32
  0
VERTEX
  8
0
  5
22A
 10
142.434
 20
166.174
 30
0.000000
  70
    32
  0
VERTEX
  8
0
  5
22B
 10
142.360
 20
166.193
 30
0.000000
  70
    32
  0
VERTEX
  8
0
  5
22C
 10
142.286
 20
166.212
 30
0.000000
  70
    32
  0
VERTEX
  8
0
  5
22D
 10
142.212
 20
166.230
 30
0.000000
  70
    32
  0
VERTEX
  8
0
  5
22E
 10
142.138
 20
166.247
 30
0.000000
  70
    32
  0
VERTEX
  8
0
  5
22F
 10
142.063
 20
166.264
 30
0.000000
  70
    32
  0
VERTEX
  8
0
  5
230
 10
141.989
 20
166.280
 30
0.000000
  70
    32
  0
VERTEX
  8
0
  5
231
 10
141.914
 20
166.295
 30
0.000000
  70
    32
  0
VERTEX
  8
0
  5
232
 10
141.839
 20
166.310
 30
0.000000
  70
    32
  0
VERTEX
  8
0
  5
233
 10
141.764
 20
166.324
 30
0.000000
  70
    32
  0
VERTEX
  8
0
  5
234
 10
141.689
 20
166.338
 30
0.000000
  70
    32
  0
VERTEX
  8
0
  5
235
 10
141.613
 20
166.351
 30
0.000000
  70
    32
  0
VERTEX
  8
0
  5
236
 10
141.538
 20
166.363
 30
0.000000
  70
    32
  0
VERTEX
  8
0
  5
237
 10
141.462
 20
166.375
 30
0.000000
  70
    32
  0
VERTEX
  8
0
  5
238
 10
141.386
 20
166.386
 30
0.000000
  70
    32
  0
VERTEX
  8
0
  5
239
 10
141.311
 20
166.396
 30
0.000000
  70
    32
  0
VERTEX
  8
0
  5
23A
 10
141.235
 20
166.406
 30
0.000000
  70
    32
  0
VERTEX
  8
0
  5
23B
 10
141.159
 20
166.415
 30
0.000000
  70
    32
  0
VERTEX
  8
0
  5
23C
 10
141.082
 20
166.423
 30
0.000000
  70
    32
  0
VERTEX
  8
0
  5
23D
 10
141.006
 20
166.431
 30
0.000000
  70
    32
  0
VERTEX
  8
0
  5
23E
 10
140.930
 20
166.438
 30
0.000000
  70
    32
  0
VERTEX
  8
0
  5
23F
 10
140.854
 20
166.445
 30
0.000000
  70
    32
  0
VERTEX
  8
0
  5
240
 10
140.777
 20
166.450
 30
0.000000
  70
    32
  0
VERTEX
  8
0
  5
241
 10
140.701
 20
166.456
 30
0.000000
  70
    32
  0
VERTEX
  8
0
  5
242
 10
140.624
 20
166.460
 30
0.000000
  70
    32
  0
VERTEX
  8
0
  5
243
 10
140.548
 20
166.464
 30
0.000000
  70
    32
  0
VERTEX
  8
0
  5
244
 10
140.471
 20
166.467
 30
0.000000
  70
    32
  0
VERTEX
  8
0
  5
245
 10
140.394
 20
166.470
 30
0.000000
  70
    32
  0
VERTEX
  8
0
  5
246
 10
140.318
 20
166.472
 30
0.000000
  70
    32
  0
VERTEX
  8
0
  5
247
 10
140.241
 20
166.473
 30
0.000000
  70
    32
  0
VERTEX
  8
0
  5
248
 10
140.164
 20
166.474
 30
0.000000
  70
    32
  0
VERTEX
  8
0
  5
249
 10
140.088
 20
166.474
 30
0.000000
  70
    32
  0
VERTEX
  8
0
  5
24A
 10
140.011
 20
166.473
 30
0.000000
  70
    32
  0
VERTEX
  8
0
  5
24B
 10
139.934
 20
166.472
 30
0.000000
  70
    32
  0
VERTEX
  8
0
  5
24C
 10
139.858
 20
166.470
 30
0.000000
  70
    32
  0
VERTEX
  8
0
  5
24D
 10
139.781
 20
166.467
 30
0.000000
  70
    32
  0
VERTEX
  8
0
  5
24E
 10
139.704
 20
166.464
 30
0.000000
  70
    32
  0
VERTEX
  8
0
  5
24F
 10
139.628
 20
166.460
 30
0.000000
  70
    32
  0
VERTEX
  8
0
  5
250
 10
139.551
 20
166.456
 30
0.000000
  70
    32
  0
VERTEX
  8
0
  5
251
 10
139.475
 20
166.450
 30
0.000000
  70
    32
  0
VERTEX
  8
0
  5
252
 10
139.398
 20
166.445
 30
0.000000
  70
    32
  0
VERTEX
  8
0
  5
253
 10
139.322
 20
166.438
 30
0.000000
  70
    32
  0
VERTEX
  8
0
  5
254
 10
139.246
 20
166.431
 30
0.000000
  70
    32
  0
VERTEX
  8
0
  5
255
 10
139.170
 20
166.423
 30
0.000000
  70
    32
  0
VERTEX
  8
0
  5
256
 10
139.093
 20
166.415
 30
0.000000
  70
    32
  0
VERTEX
  8
0
  5
257
 10
139.017
 20
166.406
 30
0.000000
  70
    32
  0
VERTEX
  8
0
  5
258
 10
138.941
 20
166.396
 30
0.000000
  70
    32
  0
VERTEX
  8
0
  5
259
 10
138.866
 20
166.386
 30
0.000000
  70
    32
  0
VERTEX
  8
0
  5
25A
 10
138.790
 20
166.375
 30
0.000000
  70
    32
  0
VERTEX
  8
0
  5
25B
 10
138.714
 20
166.363
 30
0.000000
  70
    32
  0
VERTEX
  8
0
  5
25C
 10
138.639
 20
166.351
 30
0.000000
  70
    32
  0
VERTEX
  8
0
  5
25D
 10
138.563
 20
166.338
 30
0.000000
  70
    32
  0
VERTEX
  8
0
  5
25E
 10
138.488
 20
166.324
 30
0.000000
  70
    32
  0
VERTEX
  8
0
  5
25F
 10
138.413
 20
166.310
 30
0.000000
  70
    32
  0
VERTEX
  8
0
  5
260
 10
138.338
 20
166.295
 30
0.000000
  70
    32
  0
VERTEX
  8
0
  5
261
 10
138.263
 20
166.280
 30
0.000000
  70
    32
  0
VERTEX
  8
0
  5
262
 10
138.189
 20
166.264
 30
0.000000
  70
    32
  0
VERTEX
  8
0
  5
263
 10
138.114
 20
166.247
 30
0.000000
  70
    32
  0
VERTEX
  8
0
  5
264
 10
138.040
 20
166.230
 30
0.000000
  70
    32
  0
VERTEX
  8
0
  5
265
 10
137.966
 20
166.212
 30
0.000000
  70
    32
  0
VERTEX
  8
0
  5
266
 10
137.892
 20
166.193
 30
0.000000
  70
    32
  0
VERTEX
  8
0
  5
267
 10
137.818
 20
166.174
 30
0.000000
  70
    32
  0
VERTEX
  8
0
  5
268
 10
137.745
 20
166.154
 30
0.000000
  70
    32
  0
VERTEX
  8
0
  5
269
 10
137.671
 20
166.134
 30
0.000000
  70
    32
  0
VERTEX
  8
0
  5
26A
 10
137.598
 20
166.113
 30
0.000000
  70
    32
  0
VERTEX
  8
0
  5
26B
 10
137.525
 20
166.091
 30
0.000000
  70
    32
  0
VERTEX
  8
0
  5
26C
 10
137.453
 20
166.069
 30
0.000000
  70
    32
  0
VERTEX
  8
0
  5
26D
 10
137.380
 20
166.046
 30
0.000000
  70
    32
  0
VERTEX
  8
0
  5
26E
 10
137.308
 20
166.022
 30
0.000000
  70
    32
  0
VERTEX
  8
0
  5
26F
 10
137.236
 20
165.998
 30
0.000000
  70
    32
  0
VERTEX
  8
0
  5
270
 10
137.164
 20
165.973
 30
0.000000
  70
    32
  0
VERTEX
  8
0
  5
271
 10
137.093
 20
165.948
 30
0.000000
  70
    32
  0
VERTEX
  8
0
  5
272
 10
137.022
 20
165.922
 30
0.000000
  70
    32
  0
VERTEX
  8
0
  5
273
 10
136.951
 20
165.895
 30
0.000000
  70
    32
  0
VERTEX
  8
0
  5
274
 10
136.880
 20
165.868
 30
0.000000
  70
    32
  0
VERTEX
  8
0
  5
275
 10
136.810
 20
165.840
 30
0.000000
  70
    32
  0
VERTEX
  8
0
  5
276
 10
136.740
 20
165.812
 30
0.000000
  70
    32
  0
VERTEX
  8
0
  5
277
 10
136.670
 20
165.783
 30
0.000000
  70
    32
  0
VERTEX
  8
0
  5
278
 10
136.601
 20
165.753
 30
0.000000
  70
    32
  0
VERTEX
  8
0
  5
279
 10
136.532
 20
165.723
 30
0.000000
  70
    32
  0
VERTEX
  8
0
  5
27A
 10
136.463
 20
165.692
 30
0.000000
  70
    32
  0
VERTEX
  8
0
  5
27B
 10
136.394
 20
165.661
 30
0.000000
  70
    32
  0
VERTEX
  8
0
  5
27C
 10
136.326
 20
165.629
 30
0.000000
  70
    32
  0
VERTEX
  8
0
  5
27D
 10
136.259
 20
165.596
 30
0.000000
  70
    32
  0
VERTEX
  8
0
  5
27E
 10
136.191
 20
165.563
 30
0.000000
  70
    32
  0
VERTEX
  8
0
  5
27F
 10
136.124
 20
165.529
 30
0.000000
  70
    32
  0
VERTEX
  8
0
  5
280
 10
136.057
 20
165.495
 30
0.000000
  70
    32
  0
VERTEX
  8
0
  5
281
 10
135.991
 20
165.460
 30
0.000000
  70
    32
  0
VERTEX
  8
0
  5
282
 10
135.924
 20
165.424
 30
0.000000
  70
    32
  0
VERTEX
  8
0
  5
283
 10
135.858
 20
165.388
 30
0.000000
  70
    32
  0
VERTEX
  8
0
  5
284
 10
135.793
 20
165.352
 30
0.000000
  70
    32
  0
VERTEX
  8
0
  5
285
 10
135.727
 20
165.315
 30
0.000000
  70
    32
  0
VERTEX
  8
0
  5
286
 10
135.662
 20
165.277
 30
0.000000
  70
    32
  0
VERTEX
  8
0
  5
287
 10
135.598
 20
165.239
 30
0.000000
  70
    32
  0
VERTEX
  8
0
  5
288
 10
135.533
 20
165.201
 30
0.000000
  70
    32
  0
VERTEX
  8
0
  5
289
 10
135.469
 20
165.162
 30
0.000000
  70
    32
  0
VERTEX
  8
0
  5
28A
 10
135.405
 20
165.122
 30
0.000000
  70
    32
  0
VERTEX
  8
0
  5
28B
 10
135.341
 20
165.082
 30
0.000000
  70
    32
  0
VERTEX
  8
0
  5
28C
 10
135.278
 20
165.042
 30
0.000000
  70
    32
  0
VERTEX
  8
0
  5
28D
 10
135.214
 20
165.001
 30
0.000000
  70
    32
  0
VERTEX
  8
0
  5
28E
 10
135.151
 20
164.960
 30
0.000000
  70
    32
  0
VERTEX
  8
0
  5
28F
 10
135.089
 20
164.918
 30
0.000000
  70
    32
  0
VERTEX
  8
0
  5
290
 10
135.026
 20
164.876
 30
0.000000
  70
    32
  0
VERTEX
  8
0
  5
291
 10
134.964
 20
164.834
 30
0.000000
  70
    32
  0
VERTEX
  8
0
  5
292
 10
134.902
 20
164.791
 30
0.000000
  70
    32
  0
VERTEX
  8
0
  5
293
 10
134.840
 20
164.747
 30
0.000000
  70
    32
  0
VERTEX
  8
0
  5
294
 10
134.778
 20
164.704
 30
0.000000
  70
    32
  0
VERTEX
  8
0
  5
295
 10
134.717
 20
164.660
 30
0.000000
  70
    32
  0
VERTEX
  8
0
  5
296
 10
134.655
 20
164.616
 30
0.000000
  70
    32
  0
VERTEX
  8
0
  5
297
 10
134.594
 20
164.571
 30
0.000000
  70
    32
  0
VERTEX
  8
0
  5
298
 10
134.533
 20
164.526
 30
0.000000
  70
    32
  0
VERTEX
  8
0
  5
299
 10
134.472
 20
164.481
 30
0.000000
  70
    32
  0
VERTEX
  8
0
  5
29A
 10
134.412
 20
164.435
 30
0.000000
  70
    32
  0
VERTEX
  8
0
  5
29B
 10
134.351
 20
164.389
 30
0.000000
  70
    32
  0
VERTEX
  8
0
  5
29C
 10
134.291
 20
164.343
 30
0.000000
  70
    32
  0
VERTEX
  8
0
  5
29D
 10
134.231
 20
164.297
 30
0.000000
  70
    32
  0
VERTEX
  8
0
  5
29E
 10
134.171
 20
164.250
 30
0.000000
  70
    32
  0
VERTEX
  8
0
  5
29F
 10
134.111
 20
164.203
 30
0.000000
  70
    32
  0
VERTEX
  8
0
  5
2A0
 10
134.052
 20
164.156
 30
0.000000
  70
    32
  0
VERTEX
  8
0
  5
2A1
 10
133.992
 20
164.108
 30
0.000000
  70
    32
  0
VERTEX
  8
0
  5
2A2
 10
133.933
 20
164.061
 30
0.000000
  70
    32
  0
VERTEX
  8
0
  5
2A3
 10
133.873
 20
164.013
 30
0.000000
  70
    32
  0
VERTEX
  8
0
  5
2A4
 10
133.814
 20
163.965
 30
0.000000
  70
    32
  0
VERTEX
  8
0
  5
2A5
 10
133.755
 20
163.916
 30
0.000000
  70
    32
  0
VERTEX
  8
0
  5
2A6
 10
133.696
 20
163.868
 30
0.000000
  70
    32
  0
VERTEX
  8
0
  5
2A7
 10
133.637
 20
163.819
 30
0.000000
  70
    32
  0
VERTEX
  8
0
  5
2A8
 10
133.578
 20
163.770
 30
0.000000
  70
    32
  0
VERTEX
  8
0
  5
2A9
 10
133.520
 20
163.721
 30
0.000000
  70
    32
  0
VERTEX
  8
0
  5
2AA
 10
133.461
 20
163.672
 30
0.000000
  70
    32
  0
VERTEX
  8
0
  5
2AB
 10
133.403
 20
163.623
 30
0.000000
  70
    32
  0
VERTEX
  8
0
  5
2AC
 10
133.344
 20
163.574
 30
0.000000
  70
    32
  0
VERTEX
  8
0
  5
2AD
 10
133.286
 20
163.524
 30
0.000000
  70
    32
  0
VERTEX
  8
0
  5
2AE
 10
133.228
 20
163.474
 30
0.000000
  70
    32
  0
VERTEX
  8
0
  5
2AF
 10
133.169
 20
163.425
 30
0.000000
  70
    32
  0
VERTEX
  8
0
  5
2B0
 10
133.111
 20
163.375
 30
0.000000
  70
    32
  0
VERTEX
  8
0
  5
2B1
 10
133.053
 20
163.325
 30
0.000000
  70
    32
  0
VERTEX
  8
0
  5
2B2
 10
132.995
 20
163.275
 30
0.000000
  70
    32
  0
VERTEX
  8
0
  5
2B3
 10
132.937
 20
163.225
 30
0.000000
  70
    32
  0
VERTEX
  8
0
  5
2B4
 10
132.879
 20
163.175
 30
0.000000
  70
    32
  0
VERTEX
  8
0
  5
2B5
 10
132.821
 20
163.125
 30
0.000000
  70
    32
  0
VERTEX
  8
0
  5
2B6
 10
132.763
 20
163.074
 30
0.000000
  70
    32
  0
VERTEX
  8
0
  5
2B7
 10
132.705
 20
163.024
 30
0.000000
  70
    32
  0
VERTEX
  8
0
  5
2B8
 10
132.646
 20
162.974
 30
0.000000
  70
    32
  0
SEQEND
  8
0
  5
2B9
  0
POLYLINE
  8
0
  5
2BA
  66
     1
 10
0.000000
 20
0.000000
 30
0.000000
  70
     8
  0
VERTEX
  8
0
  5
2BB
 10
147.640
 20
163.275
 30
0.000000
  70
    32
  0
VERTEX
  8
0
  5
2BC
 10
147.627
 20
163.286
 30
0.000000
  70
    32
  0
VERTEX
  8
0
  5
2BD
 10
147.614
 20
163.298
 30
0.000000
  70
    32
  0
VERTEX
  8
0
  5
2BE
 10
147.600
 20
163.309
 30
0.000000
  70
    32
  0
VERTEX
  8
0
  5
2BF
 10
147.587
 20
163.321
 30
0.000000
  70
    32
  0
VERTEX
  8
0
  5
2C0
 10
147.574
 20
163.332
 30
0.000000
  70
    32
  0
VERTEX
  8
0
  5
2C1
 10
147.560
 20
163.344
 30
0.000000
  70
    32
  0
VERTEX
  8
0
  5
2C2
 10
147.547
 20
163.355
 30
0.000000
  70
    32
  0
VERTEX
  8
0
  5
2C3
 10
147.534
 20
163.366
 30
0.000000
  70
    32
  0
VERTEX
  8
0
  5
2C4
 10
147.521
 20
163.378
 30
0.000000
  70
    32
  0
VERTEX
  8
0
  5
2C5
 10
147.507
 20
163.389
 30
0.000000
  70
    32
  0
VERTEX
  8
0
  5
2C6
 10
147.494
 20
163.401
 30
0.000000
  70
    32
  0
VERTEX
  8
0
  5
2C7
 10
147.481
 20
163.412
 30
0.000000
  70
    32
  0
VERTEX
  8
0
  5
2C8
 10
147.467
 20
163.424
 30
0.000000
  70
    32
  0
VERTEX
  8
0
  5
2C9
 10
147.454
 20
163.435
 30
0.000000
  70
    32
  0
VERTEX
  8
0
  5
2CA
 10
147.441
 20
163.447
 30
0.000000
  70
    32
  0
VERTEX
  8
0
  5
2CB
 10
147.427
 20
163.458
 30
0.000000
  70
    32
  0
VERTEX
  8
0
  5
2CC
 10
147.414
 20
163.470
 30
0.000000
  70
    32
  0
VERTEX
  8
0
  5
2CD
 10
147.401
 20
163.481
 30
0.000000
  70
    32
  0
VERTEX
  8
0
  5
2CE
 10
147.387
 20
163.493
 30
0.000000
  70
    32
  0
VERTEX
  8
0
  5
2CF
 10
147.374
 20
163.504
 30
0.000000
  70
    32
  0
VERTEX
  8
0
  5
2D0
 10
147.360
 20
163.516
 30
0.000000
  70
    32
  0
VERTEX
  8
0
  5
2D1
 10
147.347
 20
163.527
 30
0.000000
  70
    32
  0
VERTEX
  8
0
  5
2D2
 10
147.334
 20
163.539
 30
0.000000
  70
    32
  0
VERTEX
  8
0
  5
2D3
 10
147.320
 20
163.550
 30
0.000000
  70
    32
  0
VERTEX
  8
0
  5
2D4
 10
147.307
 20
163.562
 30
0.000000
  70
    32
  0
VERTEX
  8
0
  5
2D5
 10
147.294
 20
163.573
 30
0.000000
  70
    32
  0
VERTEX
  8
0
  5
2D6
 10
147.280
 20
163.585
 30
0.000000
  70
    32
  0
VERTEX
  8
0
  5
2D7
 10
147.267
 20
163.596
 30
0.000000
  70
    32
  0
VERTEX
  8
0
  5
2D8
 10
147.254
 20
163.607
 30
0.000000
  70
    32
  0
VERTEX
  8
0
  5
2D9
 10
147.240
 20
163.619
 30
0.000000
  70
    32
  0
VERTEX
  8
0
  5
2DA
 10
147.227
 20
163.630
 30
0.000000
  70
    32
  0
VERTEX
  8
0
  5
2DB
 10
147.213
 20
163.642
 30
0.000000
  70
    32
  0
VERTEX
  8
0
  5
2DC
 10
147.200
 20
163.653
 30
0.000000
  70
    32
  0
VERTEX
  8
0
  5
2DD
 10
147.187
 20
163.665
 30
0.000000
  70
    32
  0
VERTEX
  8
0
  5
2DE
 10
147.173
 20
163.676
 30
0.000000
  70
    32
  0
VERTEX
  8
0
  5
2DF
 10
147.160
 20
163.688
 30
0.000000
  70
    32
  0
VERTEX
  8
0
  5
2E0
 10
147.146
 20
163.699
 30
0.000000
  70
    32
  0
VERTEX
  8
0
  5
2E1
 10
147.133
 20
163.710
 30
0.000000
  70
    32
  0
VERTEX
  8
0
  5
2E2
 10
147.119
 20
163.722
 30
0.000000
  70
    32
  0
VERTEX
  8
0
  5
2E3
 10
147.106
 20
163.733
 30
0.000000
  70
    32
  0
VERTEX
  8
0
  5
2E4
 10
147.093
 20
163.745
 30
0.000000
  70
    32
  0
VERTEX
  8
0
  5
2E5
 10
147.079
 20
163.756
 30
0.000000
  70
    32
  0
VERTEX
  8
0
  5
2E6
 10
147.066
 20
163.767
 30
0.000000
  70
    32
  0
VERTEX
  8
0
  5
2E7
 10
147.052
 20
163.779
 30
0.000000
  70
    32
  0
VERTEX
  8
0
  5
2E8
 10
147.039
 20
163.790
 30
0.000000
  70
    32
  0
VERTEX
  8
0
  5
2E9
 10
147.025
 20
163.802
 30
0.000000
  70
    32
  0
VERTEX
  8
0
  5
2EA
 10
147.012
 20
163.813
 30
0.000000
  70
    32
  0
VERTEX
  8
0
  5
2EB
 10
146.998
 20
163.824
 30
0.000000
  70
    32
  0
VERTEX
  8
0
  5
2EC
 10
146.985
 20
163.836
 30
0.000000
  70
    32
  0
VERTEX
  8
0
  5
2ED
 10
146.971
 20
163.847
 30
0.000000
  70
    32
  0
VERTEX
  8
0
  5
2EE
 10
146.958
 20
163.858
 30
0.000000
  70
    32
  0
VERTEX
  8
0
  5
2EF
 10
146.944
 20
163.870
 30
0.000000
  70
    32
  0
VERTEX
  8
0
  5
2F0
 10
146.931
 20
163.881
 30
0.000000
  70
    32
  0
VERTEX
  8
0
  5
2F1
 10
146.917
 20
163.892
 30
0.000000
  70
    32
  0
VERTEX
  8
0
  5
2F2
 10
146.904
 20
163.904
 30
0.000000
  70
    32
  0
VERTEX
  8
0
  5
2F3
 10
146.890
 20
163.915
 30
0.000000
  70
    32
  0
VERTEX
  8
0
  5
2F4
 10
146.877
 20
163.926
 30
0.000000
  70
    32
  0
VERTEX
  8
0
  5
2F5
 10
146.863
 20
163.938
 30
0.000000
  70
    32
  0
VERTEX
  8
0
  5
2F6
 10
146.850
 20
163.949
 30
0.000000
  70
    32
  0
VERTEX
  8
0
  5
2F7
 10
146.836
 20
163.960
 30
0.000000
  70
    32
  0
VERTEX
  8
0
  5
2F8
 10
146.823
 20
163.971
 30
0.000000
  70
    32
  0
VERTEX
  8
0
  5
2F9
 10
146.809
 20
163.983
 30
0.000000
  70
    32
  0
VERTEX
  8
0
  5
2FA
 10
146.796
 20
163.994
 30
0.000000
  70
    32
  0
VERTEX
  8
0
  5
2FB
 10
146.782
 20
164.005
 30
0.000000
  70
    32
  0
VERTEX
  8
0
  5
2FC
 10
146.768
 20
164.017
 30
0.000000
  70
    32
  0
VERTEX
  8
0
  5
2FD
 10
146.755
 20
164.028
 30
0.000000
  70
    32
  0
VERTEX
  8
0
  5
2FE
 10
146.741
 20
164.039
 30
0.000000
  70
    32
  0
VERTEX
  8
0
  5
2FF
 10
146.728
 20
164.050
 30
0.000000
  70
    32
  0
VERTEX
  8
0
  5
300
 10
146.714
 20
164.061
 30
0.000000
  70
    32
  0
VERTEX
  8
0
  5
301
 10
146.700
 20
164.073
 30
0.000000
  70
    32
  0
VERTEX
  8
0
  5
302
 10
146.687
 20
164.084
 30
0.000000
  70
    32
  0
VERTEX
  8
0
  5
303
 10
146.673
 20
164.095
 30
0.000000
  70
    32
  0
VERTEX
  8
0
  5
304
 10
146.660
 20
164.106
 30
0.000000
  70
    32
  0
VERTEX
  8
0
  5
305
 10
146.646
 20
164.117
 30
0.000000
  70
    32
  0
VERTEX
  8
0
  5
306
 10
146.632
 20
164.129
 30
0.000000
  70
    32
  0
VERTEX
  8
0
  5
307
 10
146.619
 20
164.140
 30
0.000000
  70
    32
  0
VERTEX
  8
0
  5
308
 10
146.605
 20
164.151
 30
0.000000
  70
    32
  0
VERTEX
  8
0
  5
309
 10
146.591
 20
164.162
 30
0.000000
  70
    32
  0
VERTEX
  8
0
  5
30A
 10
146.578
 20
164.173
 30
0.000000
  70
    32
  0
VERTEX
  8
0
  5
30B
 10
146.564
 20
164.184
 30
0.000000
  70
    32
  0
VERTEX
  8
0
  5
30C
 10
146.550
 20
164.195
 30
0.000000
  70
    32
  0
VERTEX
  8
0
  5
30D
 10
146.537
 20
164.207
 30
0.000000
  70
    32
  0
VERTEX
  8
0
  5
30E
 10
146.523
 20
164.218
 30
0.000000
  70
    32
  0
VERTEX
  8
0
  5
30F
 10
146.509
 20
164.229
 30
0.000000
  70
    32
  0
VERTEX
  8
0
  5
310
 10
146.496
 20
164.240
 30
0.000000
  70
    32
  0
VERTEX
  8
0
  5
311
 10
146.482
 20
164.251
 30
0.000000
  70
    32
  0
VERTEX
  8
0
  5
312
 10
146.468
 20
164.262
 30
0.000000
  70
    32
  0
VERTEX
  8
0
  5
313
 10
146.454
 20
164.273
 30
0.000000
  70
    32
  0
VERTEX
  8
0
  5
314
 10
146.441
 20
164.284
 30
0.000000
  70
    32
  0
VERTEX
  8
0
  5
315
 10
146.427
 20
164.295
 30
0.000000
  70
    32
  0
VERTEX
  8
0
  5
316
 10
146.413
 20
164.306
 30
0.000000
  70
    32
  0
VERTEX
  8
0
  5
317
 10
146.399
 20
164.317
 30
0.000000
  70
    32
  0
VERTEX
  8
0
  5
318
 10
146.386
 20
164.328
 30
0.000000
  70
    32
  0
VERTEX
  8
0
  5
319
 10
146.372
 20
164.339
 30
0.000000
  70
    32
  0
VERTEX
  8
0
  5
31A
 10
146.358
 20
164.350
 30
0.000000
  70
    32
  0
VERTEX
  8
0
  5
31B
 10
146.344
 20
164.361
 30
0.000000
  70
    32
  0
VERTEX
  8
0
  5
31C
 10
146.330
 20
164.372
 30
0.000000
  70
    32
  0
VERTEX
  8
0
  5
31D
 10
146.316
 20
164.383
 30
0.000000
  70
    32
  0
VERTEX
  8
0
  5
31E
 10
146.303
 20
164.394
 30
0.000000
  70
    32
  0
VERTEX
  8
0
  5
31F
 10
146.289
 20
164.405
 30
0.000000
  70
    32
  0
VERTEX
  8
0
  5
320
 10
146.275
 20
164.416
 30
0.000000
  70
    32
  0
VERTEX
  8
0
  5
321
 10
146.261
 20
164.427
 30
0.000000
  70
    32
  0
VERTEX
  8
0
  5
322
 10
146.247
 20
164.437
 30
0.000000
  70
    32
  0
VERTEX
  8
0
  5
323
 10
146.233
 20
164.448
 30
0.000000
  70
    32
  0
VERTEX
  8
0
  5
324
 10
146.219
 20
164.459
 30
0.000000
  70
    32
  0
VERTEX
  8
0
  5
325
 10
146.206
 20
164.470
 30
0.000000
  70
    32
  0
VERTEX
  8
0
  5
326
 10
146.192
 20
164.481
 30
0.000000
  70
    32
  0
VERTEX
  8
0
  5
327
 10
146.178
 20
164.492
 30
0.000000
  70
    32
  0
VERTEX
  8
0
  5
328
 10
146.164
 20
164.502
 30
0.000000
  70
    32
  0
VERTEX
  8
0
  5
329
 10
146.150
 20
164.513
 30
0.000000
  70
    32
  0
VERTEX
  8
0
  5
32A
 10
146.136
 20
164.524
 30
0.000000
  70
    32
  0
VERTEX
  8
0
  5
32B
 10
146.122
 20
164.535
 30
0.000000
  70
    32
  0
VERTEX
  8
0
  5
32C
 10
146.108
 20
164.545
 30
0.000000
  70
    32
  0
VERTEX
  8
0
  5
32D
 10
146.094
 20
164.556
 30
0.000000
  70
    32
  0
VERTEX
  8
0
  5
32E
 10
146.080
 20
164.567
 30
0.000000
  70
    32
  0
VERTEX
  8
0
  5
32F
 10
146.066
 20
164.578
 30
0.000000
  70
    32
  0
VERTEX
  8
0
  5
330
 10
146.052
 20
164.588
 30
0.000000
  70
    32
  0
VERTEX
  8
0
  5
331
 10
146.038
 20
164.599
 30
0.000000
  70
    32
  0
VERTEX
  8
0
  5
332
 10
146.024
 20
164.610
 30
0.000000
  70
    32
  0
VERTEX
  8
0
  5
333
 10
146.010
 20
164.620
 30
0.000000
  70
    32
  0
VERTEX
  8
0
  5
334
 10
145.996
 20
164.631
 30
0.000000
  70
    32
  0
VERTEX
  8
0
  5
335
 10
145.982
 20
164.642
 30
0.000000
  70
    32
  0
VERTEX
  8
0
  5
336
 10
145.968
 20
164.652
 30
0.000000
  70
    32
  0
VERTEX
  8
0
  5
337
 10
145.954
 20
164.663
 30
0.000000
  70
    32
  0
VERTEX
  8
0
  5
338
 10
145.940
 20
164.673
 30
0.000000
  70
    32
  0
VERTEX
  8
0
  5
339
 10
145.926
 20
164.684
 30
0.000000
  70
    32
  0
VERTEX
  8
0
  5
33A
 10
145.911
 20
164.694
 30
0.000000
  70
    32
  0
VERTEX
  8
0
  5
33B
 10
145.897
 20
164.705
 30
0.000000
  70
    32
  0
VERTEX
  8
0
  5
33C
 10
145.883
 20
164.715
 30
0.000000
  70
    32
  0
VERTEX
  8
0
  5
33D
 10
145.869
 20
164.726
 30
0.000000
  70
    32
  0
VERTEX
  8
0
  5
33E
 10
145.855
 20
164.736
 30
0.000000
  70
    32
  0
VERTEX
  8
0
  5
33F
 10
145.841
 20
164.747
 30
0.000000
  70
    32
  0
VERTEX
  8
0
  5
340
 10
145.827
 20
164.757
 30
0.000000
  70
    32
  0
VERTEX
  8
0
  5
341
 10
145.812
 20
164.768
 30
0.000000
  70
    32
  0
VERTEX
  8
0
  5
342
 10
145.798
 20
164.778
 30
0.000000
  70
    32
  0
VERTEX
  8
0
  5
343
 10
145.784
 20
164.789
 30
0.000000
  70
    32
  0
VERTEX
  8
0
  5
344
 10
145.770
 20
164.799
 30
0.000000
  70
    32
  0
VERTEX
  8
0
  5
345
 10
145.756
 20
164.809
 30
0.000000
  70
    32
  0
VERTEX
  8
0
  5
346
 10
145.741
 20
164.820
 30
0.000000
  70
    32
  0
VERTEX
  8
0
  5
347
 10
145.727
 20
164.830
 30
0.000000
  70
    32
  0
VERTEX
  8
0
  5
348
 10
145.713
 20
164.840
 30
0.000000
  70
    32
  0
VERTEX
  8
0
  5
349
 10
145.698
 20
164.851
 30
0.000000
  70
    32
  0
VERTEX
  8
0
  5
34A
 10
145.684
 20
164.861
 30
0.000000
  70
    32
  0
VERTEX
  8
0
  5
34B
 10
145.670
 20
164.871
 30
0.000000
  70
    32
  0
VERTEX
  8
0
  5
34C
 10
145.656
 20
164.881
 30
0.000000
  70
    32
  0
VERTEX
  8
0
  5
34D
 10
145.641
 20
164.892
 30
0.000000
  70
    32
  0
VERTEX
  8
0
  5
34E
 10
145.627
 20
164.902
 30
0.000000
  70
    32
  0
VERTEX
  8
0
  5
34F
 10
145.613
 20
164.912
 30
0.000000
  70
    32
  0
VERTEX
  8
0
  5
350
 10
145.598
 20
164.922
 30
0.000000
  70
    32
  0
VERTEX
  8
0
  5
351
 10
145.584
 20
164.932
 30
0.000000
  70
    32
  0
VERTEX
  8
0
  5
352
 10
145.569
 20
164.943
 30
0.000000
  70
    32
  0
VERTEX
  8
0
  5
353
 10
145.555
 20
164.953
 30
0.000000
  70
    32
  0
VERTEX
  8
0
  5
354
 10
145.541
 20
164.963
 30
0.000000
  70
    32
  0
VERTEX
  8
0
  5
355
 10
145.526
 20
164.973
 30
0.000000
  70
    32
  0
VERTEX
  8
0
  5
356
 10
145.512
 20
164.983
 30
0.000000
  70
    32
  0
VERTEX
  8
0
  5
357
 10
145.497
 20
164.993
 30
0.000000
  70
    32
  0
VERTEX
  8
0
  5
358
 10
145.483
 20
165.003
 30
0.000000
  70
    32
  0
VERTEX
  8
0
  5
359
 10
145.468
 20
165.013
 30
0.000000
  70
    32
  0
VERTEX
  8
0
  5
35A
 10
145.454
 20
165.023
 30
0.000000
  70
    32
  0
VERTEX
  8
0
  5
35B
 10
145.439
 20
165.033
 30
0.000000
  70
    32
  0
VERTEX
  8
0
  5
35C
 10
145.425
 20
165.043
 30
0.000000
  70
    32
  0
VERTEX
  8
0
  5
35D
 10
145.410
 20
165.053
 30
0.000000
  70
    32
  0
VERTEX
  8
0
  5
35E
 10
145.396
 20
165.063
 30
0.000000
  70
    32
  0
VERTEX
  8
0
  5
35F
 10
145.381
 20
165.073
 30
0.000000
  70
    32
  0
VERTEX
  8
0
  5
360
 10
145.367
 20
165.083
 30
0.000000
  70
    32
  0
VERTEX
  8
0
  5
361
 10
145.352
 20
165.093
 30
0.000000
  70
    32
  0
VERTEX
  8
0
  5
362
 10
145.337
 20
165.102
 30
0.000000
  70
    32
  0
VERTEX
  8
0
  5
363
 10
145.323
 20
165.112
 30
0.000000
  70
    32
  0
VERTEX
  8
0
  5
364
 10
145.308
 20
165.122
 30
0.000000
  70
    32
  0
VERTEX
  8
0
  5
365
 10
145.294
 20
165.132
 30
0.000000
  70
    32
  0
VERTEX
  8
0
  5
366
 10
145.279
 20
165.142
 30
0.000000
  70
    32
  0
VERTEX
  8
0
  5
367
 10
145.264
 20
165.151
 30
0.000000
  70
    32
  0
VERTEX
  8
0
  5
368
 10
145.250
 20
165.161
 30
0.000000
  70
    32
  0
VERTEX
  8
0
  5
369
 10
145.235
 20
165.171
 30
0.000000
  70
    32
  0
VERTEX
  8
0
  5
36A
 10
145.220
 20
165.180
 30
0.000000
  70
    32
  0
VERTEX
  8
0
  5
36B
 10
145.205
 20
165.190
 30
0.000000
  70
    32
  0
VERTEX
  8
0
  5
36C
 10
145.191
 20
165.200
 30
0.000000
  70
    32
  0
VERTEX
  8
0
  5
36D
 10
145.176
 20
165.209
 30
0.000000
  70
    32
  0
VERTEX
  8
0
  5
36E
 10
145.161
 20
165.219
 30
0.000000
  70
    32
  0
VERTEX
  8
0
  5
36F
 10
145.146
 20
165.228
 30
0.000000
  70
    32
  0
VERTEX
  8
0
  5
370
 10
145.132
 20
165.238
 30
0.000000
  70
    32
  0
VERTEX
  8
0
  5
371
 10
145.117
 20
165.247
 30
0.000000
  70
    32
  0
VERTEX
  8
0
  5
372
 10
145.102
 20
165.257
 30
0.000000
  70
    32
  0
VERTEX
  8
0
  5
373
 10
145.087
 20
165.266
 30
0.000000
  70
    32
  0
VERTEX
  8
0
  5
374
 10
145.072
 20
165.276
 30
0.000000
  70
    32
  0
VERTEX
  8
0
  5
375
 10
145.057
 20
165.285
 30
0.000000
  70
    32
  0
VERTEX
  8
0
  5
376
 10
145.042
 20
165.295
 30
0.000000
  70
    32
  0
VERTEX
  8
0
  5
377
 10
145.028
 20
165.304
 30
0.000000
  70
    32
  0
VERTEX
  8
0
  5
378
 10
145.013
 20
165.313
 30
0.000000
  70
    32
  0
VERTEX
  8
0
  5
379
 10
144.998
 20
165.323
 30
0.000000
  70
    32
  0
VERTEX
  8
0
  5
37A
 10
144.983
 20
165.332
 30
0.000000
  70
    32
  0
VERTEX
  8
0
  5
37B
 10
144.968
 20
165.341
 30
0.000000
  70
    32
  0
VERTEX
  8
0
  5
37C
 10
144.953
 20
165.351
 30
0.000000
  70
    32
  0
VERTEX
  8
0
  5
37D
 10
144.938
 20
165.360
 30
0.000000
  70
    32
  0
VERTEX
  8
0
  5
37E
 10
144.923
 20
165.369
 30
0.000000
  70
    32
  0
VERTEX
  8
0
  5
37F
 10
144.908
 20
165.378
 30
0.000000
  70
    32
  0
VERTEX
  8
0
  5
380
 10
144.893
 20
165.388
 30
0.000000
  70
    32
  0
VERTEX
  8
0
  5
381
 10
144.878
 20
165.397
 30
0.000000
  70
    32
  0
VERTEX
  8
0
  5
382
 10
144.863
 20
165.406
 30
0.000000
  70
    32
  0
VERTEX
  8
0
  5
383
 10
144.848
 20
165.415
 30
0.000000
  70
    32
  0
VERTEX
  8
0
  5
384
 10
144.832
 20
165.424
 30
0.000000
  70
    32
  0
VERTEX
  8
0
  5
385
 10
144.817
 20
165.433
 30
0.000000
  70
    32
  0
VERTEX
  8
0
  5
386
 10
144.802
 20
165.442
 30
0.000000
  70
    32
  0
VERTEX
  8
0
  5
387
 10
144.787
 20
165.451
 30
0.000000
  70
    32
  0
VERTEX
  8
0
  5
388
 10
144.772
 20
165.460
 30
0.000000
  70
    32
  0
VERTEX
  8
0
  5
389
 10
144.757
 20
165.469
 30
0.000000
  70
    32
  0
VERTEX
  8
0
  5
38A
 10
144.742
 20
165.478
 30
0.000000
  70
    32
  0
VERTEX
  8
0
  5
38B
 10
144.726
 20
165.487
 30
0.000000
  70
    32
  0
VERTEX
  8
0
  5
38C
 10
144.711
 20
165.496
 30
0.000000
  70
    32
  0
VERTEX
  8
0
  5
38D
 10
144.696
 20
165.505
 30
0.000000
  70
    32
  0
VERTEX
  8
0
  5
38E
 10
144.681
 20
165.513
 30
0.000000
  70
    32
  0
VERTEX
  8
0
  5
38F
 10
144.665
 20
165.522
 30
0.000000
  70
    32
  0
VERTEX
  8
0
  5
390
 10
144.650
 20
165.531
 30
0.000000
  70
    32
  0
VERTEX
  8
0
  5
391
 10
144.635
 20
165.540
 30
0.000000
  70
    32
  0
VERTEX
  8
0
  5
392
 10
144.619
 20
165.548
 30
0.000000
  70
    32
  0
VERTEX
  8
0
  5
393
 10
144.604
 20
165.557
 30
0.000000
  70
    32
  0
VERTEX
  8
0
  5
394
 10
144.589
 20
165.566
 30
0.000000
  70
    32
  0
VERTEX
  8
0
  5
395
 10
144.573
 20
165.574
 30
0.000000
  70
    32
  0
VERTEX
  8
0
  5
396
 10
144.558
 20
165.583
 30
0.000000
  70
    32
  0
VERTEX
  8
0
  5
397
 10
144.542
 20
165.592
 30
0.000000
  70
    32
  0
VERTEX
  8
0
  5
398
 10
144.527
 20
165.600
 30
0.000000
  70
    32
  0
VERTEX
  8
0
  5
399
 10
144.511
 20
165.609
 30
0.000000
  70
    32
  0
VERTEX
  8
0
  5
39A
 10
144.496
 20
165.617
 30
0.000000
  70
    32
  0
VERTEX
  8
0
  5
39B
 10
144.481
 20
165.626
 30
0.000000
  70
    32
  0
VERTEX
  8
0
  5
39C
 10
144.465
 20
165.634
 30
0.000000
  70
    32
  0
VERTEX
  8
0
  5
39D
 10
144.449
 20
165.643
 30
0.000000
  70
    32
  0
VERTEX
  8
0
  5
39E
 10
144.434
 20
165.651
 30
0.000000
  70
    32
  0
VERTEX
  8
0
  5
39F
 10
144.418
 20
165.659
 30
0.000000
  70
    32
  0
VERTEX
  8
0
  5
3A0
 10
144.403
 20
165.668
 30
0.000000
  70
    32
  0
VERTEX
  8
0
  5
3A1
 10
144.387
 20
165.676
 30
0.000000
  70
    32
  0
VERTEX
  8
0
  5
3A2
 10
144.372
 20
165.684
 30
0.000000
  70
    32
  0
VERTEX
  8
0
  5
3A3
 10
144.356
 20
165.693
 30
0.000000
  70
    32
  0
VERTEX
  8
0
  5
3A4
 10
144.340
 20
165.701
 30
0.000000
  70
    32
  0
VERTEX
  8
0
  5
3A5
 10
144.325
 20
165.709
 30
0.000000
  70
    32
  0
VERTEX
  8
0
  5
3A6
 10
144.309
 20
165.717
 30
0.000000
  70
    32
  0
VERTEX
  8
0
  5
3A7
 10
144.293
 20
165.725
 30
0.000000
  70
    32
  0
VERTEX
  8
0
  5
3A8
 10
144.278
 20
165.733
 30
0.000000
  70
    32
  0
VERTEX
  8
0
  5
3A9
 10
144.262
 20
165.741
 30
0.000000
  70
    32
  0
VERTEX
  8
0
  5
3AA
 10
144.246
 20
165.749
 30
0.000000
  70
    32
  0
VERTEX
  8
0
  5
3AB
 10
144.230
 20
165.758
 30
0.000000
  70
    32
  0
VERTEX
  8
0
  5
3AC
 10
144.214
 20
165.766
 30
0.000000
  70
    32
  0
VERTEX
  8
0
  5
3AD
 10
144.199
 20
165.773
 30
0.000000
  70
    32
  0
VERTEX
  8
0
  5
3AE
 10
144.183
 20
165.781
 30
0.000000
  70
    32
  0
VERTEX
  8
0
  5
3AF
 10
144.167
 20
165.789
 30
0.000000
  70
    32
  0
VERTEX
  8
0
  5
3B0
 10
144.151
 20
165.797
 30
0.000000
  70
    32
  0
VERTEX
  8
0
  5
3B1
 10
144.135
 20
165.805
 30
0.000000
  70
    32
  0
VERTEX
  8
0
  5
3B2
 10
144.119
 20
165.813
 30
0.000000
  70
    32
  0
VERTEX
  8
0
  5
3B3
 10
144.103
 20
165.821
 30
0.000000
  70
    32
  0
VERTEX
  8
0
  5
3B4
 10
144.087
 20
165.828
 30
0.000000
  70
    32
  0
VERTEX
  8
0
  5
3B5
 10
144.071
 20
165.836
 30
0.000000
  70
    32
  0
VERTEX
  8
0
  5
3B6
 10
144.055
 20
165.844
 30
0.000000
  70
    32
  0
VERTEX
  8
0
  5
3B7
 10
144.039
 20
165.851
 30
0.000000
  70
    32
  0
VERTEX
  8
0
  5
3B8
 10
144.023
 20
165.859
 30
0.000000
  70
    32
  0
VERTEX
  8
0
  5
3B9
 10
144.007
 20
165.867
 30
0.000000
  70
    32
  0
VERTEX
  8
0
  5
3BA
 10
143.991
 20
165.874
 30
0.000000
  70
    32
  0
SEQEND
  8
0
  5
3BB
  0
LINE
  5
BD
  8
LINES
 10
143.88511476071849
 20
165.64785307324681
 30
0.0
 11
143.99133395167479
 21
165.87416577033221
 31
0.0
  0
LINE
  5
BE
  8
LINES
 10
136.3668709062093
 20
165.64785307324689
 30
0.0
 11
136.2611373615141
 21
165.87378047346581
 31
0.0
  0
POLYLINE
  8
0
  5
3BC
  66
     1
 10
0.000000
 20
0.000000
 30
0.000000
  70
     8
  0
VERTEX
  8
0
  5
3BD
 10
136.261
 20
165.874
 30
0.000000
  70
    32
  0
VERTEX
  8
0
  5
3BE
 10
136.245
 20
165.866
 30
0.000000
  70
    32
  0
VERTEX
  8
0
  5
3BF
 10
136.229
 20
165.859
 30
0.000000
  70
    32
  0
VERTEX
  8
0
  5
3C0
 10
136.213
 20
165.851
 30
0.000000
  70
    32
  0
VERTEX
  8
0
  5
3C1
 10
136.197
 20
165.843
 30
0.000000
  70
    32
  0
VERTEX
  8
0
  5
3C2
 10
136.181
 20
165.836
 30
0.000000
  70
    32
  0
VERTEX
  8
0
  5
3C3
 10
136.165
 20
165.828
 30
0.000000
  70
    32
  0
VERTEX
  8
0
  5
3C4
 10
136.149
 20
165.820
 30
0.000000
  70
    32
  0
VERTEX
  8
0
  5
3C5
 10
136.133
 20
165.813
 30
0.000000
  70
    32
  0
VERTEX
  8
0
  5
3C6
 10
136.117
 20
165.805
 30
0.000000
  70
    32
  0
VERTEX
  8
0
  5
3C7
 10
136.101
 20
165.797
 30
0.000000
  70
    32
  0
VERTEX
  8
0
  5
3C8
 10
136.085
 20
165.789
 30
0.000000
  70
    32
  0
VERTEX
  8
0
  5
3C9
 10
136.070
 20
165.781
 30
0.000000
  70
    32
  0
VERTEX
  8
0
  5
3CA
 10
136.054
 20
165.773
 30
0.000000
  70
    32
  0
VERTEX
  8
0
  5
3CB
 10
136.038
 20
165.765
 30
0.000000
  70
    32
  0
VERTEX
  8
0
  5
3CC
 10
136.022
 20
165.757
 30
0.000000
  70
    32
  0
VERTEX
  8
0
  5
3CD
 10
136.006
 20
165.749
 30
0.000000
  70
    32
  0
VERTEX
  8
0
  5
3CE
 10
135.990
 20
165.741
 30
0.000000
  70
    32
  0
VERTEX
  8
0
  5
3CF
 10
135.975
 20
165.733
 30
0.000000
  70
    32
  0
VERTEX
  8
0
  5
3D0
 10
135.959
 20
165.725
 30
0.000000
  70
    32
  0
VERTEX
  8
0
  5
3D1
 10
135.943
 20
165.717
 30
0.000000
  70
    32
  0
VERTEX
  8
0
  5
3D2
 10
135.928
 20
165.709
 30
0.000000
  70
    32
  0
VERTEX
  8
0
  5
3D3
 10
135.912
 20
165.701
 30
0.000000
  70
    32
  0
VERTEX
  8
0
  5
3D4
 10
135.896
 20
165.693
 30
0.000000
  70
    32
  0
VERTEX
  8
0
  5
3D5
 10
135.881
 20
165.684
 30
0.000000
  70
    32
  0
VERTEX
  8
0
  5
3D6
 10
135.865
 20
165.676
 30
0.000000
  70
    32
  0
VERTEX
  8
0
  5
3D7
 10
135.849
 20
165.668
 30
0.000000
  70
    32
  0
VERTEX
  8
0
  5
3D8
 10
135.834
 20
165.659
 30
0.000000
  70
    32
  0
VERTEX
  8
0
  5
3D9
 10
135.818
 20
165.651
 30
0.000000
  70
    32
  0
VERTEX
  8
0
  5
3DA
 10
135.803
 20
165.643
 30
0.000000
  70
    32
  0
VERTEX
  8
0
  5
3DB
 10
135.787
 20
165.634
 30
0.000000
  70
    32
  0
VERTEX
  8
0
  5
3DC
 10
135.772
 20
165.626
 30
0.000000
  70
    32
  0
VERTEX
  8
0
  5
3DD
 10
135.756
 20
165.617
 30
0.000000
  70
    32
  0
VERTEX
  8
0
  5
3DE
 10
135.741
 20
165.609
 30
0.000000
  70
    32
  0
VERTEX
  8
0
  5
3DF
 10
135.725
 20
165.600
 30
0.000000
  70
    32
  0
VERTEX
  8
0
  5
3E0
 10
135.710
 20
165.592
 30
0.000000
  70
    32
  0
VERTEX
  8
0
  5
3E1
 10
135.694
 20
165.583
 30
0.000000
  70
    32
  0
VERTEX
  8
0
  5
3E2
 10
135.679
 20
165.575
 30
0.000000
  70
    32
  0
VERTEX
  8
0
  5
3E3
 10
135.664
 20
165.566
 30
0.000000
  70
    32
  0
VERTEX
  8
0
  5
3E4
 10
135.648
 20
165.557
 30
0.000000
  70
    32
  0
VERTEX
  8
0
  5
3E5
 10
135.633
 20
165.549
 30
0.000000
  70
    32
  0
VERTEX
  8
0
  5
3E6
 10
135.617
 20
165.540
 30
0.000000
  70
    32
  0
VERTEX
  8
0
  5
3E7
 10
135.602
 20
165.531
 30
0.000000
  70
    32
  0
VERTEX
  8
0
  5
3E8
 10
135.587
 20
165.522
 30
0.000000
  70
    32
  0
VERTEX
  8
0
  5
3E9
 10
135.572
 20
165.513
 30
0.000000
  70
    32
  0
VERTEX
  8
0
  5
3EA
 10
135.556
 20
165.505
 30
0.000000
  70
    32
  0
VERTEX
  8
0
  5
3EB
 10
135.541
 20
165.496
 30
0.000000
  70
    32
  0
VERTEX
  8
0
  5
3EC
 10
135.526
 20
165.487
 30
0.000000
  70
    32
  0
VERTEX
  8
0
  5
3ED
 10
135.511
 20
165.478
 30
0.000000
  70
    32
  0
VERTEX
  8
0
  5
3EE
 10
135.495
 20
165.469
 30
0.000000
  70
    32
  0
VERTEX
  8
0
  5
3EF
 10
135.480
 20
165.460
 30
0.000000
  70
    32
  0
VERTEX
  8
0
  5
3F0
 10
135.465
 20
165.451
 30
0.000000
  70
    32
  0
VERTEX
  8
0
  5
3F1
 10
135.450
 20
165.442
 30
0.000000
  70
    32
  0
VERTEX
  8
0
  5
3F2
 10
135.435
 20
165.433
 30
0.000000
  70
    32
  0
VERTEX
  8
0
  5
3F3
 10
135.420
 20
165.424
 30
0.000000
  70
    32
  0
VERTEX
  8
0
  5
3F4
 10
135.405
 20
165.415
 30
0.000000
  70
    32
  0
VERTEX
  8
0
  5
3F5
 10
135.389
 20
165.406
 30
0.000000
  70
    32
  0
VERTEX
  8
0
  5
3F6
 10
135.374
 20
165.397
 30
0.000000
  70
    32
  0
VERTEX
  8
0
  5
3F7
 10
135.359
 20
165.388
 30
0.000000
  70
    32
  0
VERTEX
  8
0
  5
3F8
 10
135.344
 20
165.378
 30
0.000000
  70
    32
  0
VERTEX
  8
0
  5
3F9
 10
135.329
 20
165.369
 30
0.000000
  70
    32
  0
VERTEX
  8
0
  5
3FA
 10
135.314
 20
165.360
 30
0.000000
  70
    32
  0
VERTEX
  8
0
  5
3FB
 10
135.299
 20
165.351
 30
0.000000
  70
    32
  0
VERTEX
  8
0
  5
3FC
 10
135.284
 20
165.342
 30
0.000000
  70
    32
  0
VERTEX
  8
0
  5
3FD
 10
135.269
 20
165.332
 30
0.000000
  70
    32
  0
VERTEX
  8
0
  5
3FE
 10
135.254
 20
165.323
 30
0.000000
  70
    32
  0
VERTEX
  8
0
  5
3FF
 10
135.239
 20
165.314
 30
0.000000
  70
    32
  0
VERTEX
  8
0
  5
400
 10
135.225
 20
165.304
 30
0.000000
  70
    32
  0
VERTEX
  8
0
  5
401
 10
135.210
 20
165.295
 30
0.000000
  70
    32
  0
VERTEX
  8
0
  5
402
 10
135.195
 20
165.285
 30
0.000000
  70
    32
  0
VERTEX
  8
0
  5
403
 10
135.180
 20
165.276
 30
0.000000
  70
    32
  0
VERTEX
  8
0
  5
404
 10
135.165
 20
165.267
 30
0.000000
  70
    32
  0
VERTEX
  8
0
  5
405
 10
135.150
 20
165.257
 30
0.000000
  70
    32
  0
VERTEX
  8
0
  5
406
 10
135.135
 20
165.248
 30
0.000000
  70
    32
  0
VERTEX
  8
0
  5
407
 10
135.121
 20
165.238
 30
0.000000
  70
    32
  0
VERTEX
  8
0
  5
408
 10
135.106
 20
165.229
 30
0.000000
  70
    32
  0
VERTEX
  8
0
  5
409
 10
135.091
 20
165.219
 30
0.000000
  70
    32
  0
VERTEX
  8
0
  5
40A
 10
135.076
 20
165.209
 30
0.000000
  70
    32
  0
VERTEX
  8
0
  5
40B
 10
135.061
 20
165.200
 30
0.000000
  70
    32
  0
VERTEX
  8
0
  5
40C
 10
135.047
 20
165.190
 30
0.000000
  70
    32
  0
VERTEX
  8
0
  5
40D
 10
135.032
 20
165.180
 30
0.000000
  70
    32
  0
VERTEX
  8
0
  5
40E
 10
135.017
 20
165.171
 30
0.000000
  70
    32
  0
VERTEX
  8
0
  5
40F
 10
135.003
 20
165.161
 30
0.000000
  70
    32
  0
VERTEX
  8
0
  5
410
 10
134.988
 20
165.151
 30
0.000000
  70
    32
  0
VERTEX
  8
0
  5
411
 10
134.973
 20
165.142
 30
0.000000
  70
    32
  0
VERTEX
  8
0
  5
412
 10
134.959
 20
165.132
 30
0.000000
  70
    32
  0
VERTEX
  8
0
  5
413
 10
134.944
 20
165.122
 30
0.000000
  70
    32
  0
VERTEX
  8
0
  5
414
 10
134.929
 20
165.112
 30
0.000000
  70
    32
  0
VERTEX
  8
0
  5
415
 10
134.915
 20
165.103
 30
0.000000
  70
    32
  0
VERTEX
  8
0
  5
416
 10
134.900
 20
165.093
 30
0.000000
  70
    32
  0
VERTEX
  8
0
  5
417
 10
134.886
 20
165.083
 30
0.000000
  70
    32
  0
VERTEX
  8
0
  5
418
 10
134.871
 20
165.073
 30
0.000000
  70
    32
  0
VERTEX
  8
0
  5
419
 10
134.856
 20
165.063
 30
0.000000
  70
    32
  0
VERTEX
  8
0
  5
41A
 10
134.842
 20
165.053
 30
0.000000
  70
    32
  0
VERTEX
  8
0
  5
41B
 10
134.827
 20
165.043
 30
0.000000
  70
    32
  0
VERTEX
  8
0
  5
41C
 10
134.813
 20
165.033
 30
0.000000
  70
    32
  0
VERTEX
  8
0
  5
41D
 10
134.798
 20
165.023
 30
0.000000
  70
    32
  0
VERTEX
  8
0
  5
41E
 10
134.784
 20
165.013
 30
0.000000
  70
    32
  0
VERTEX
  8
0
  5
41F
 10
134.769
 20
165.003
 30
0.000000
  70
    32
  0
VERTEX
  8
0
  5
420
 10
134.755
 20
164.993
 30
0.000000
  70
    32
  0
VERTEX
  8
0
  5
421
 10
134.740
 20
164.983
 30
0.000000
  70
    32
  0
VERTEX
  8
0
  5
422
 10
134.726
 20
164.973
 30
0.000000
  70
    32
  0
VERTEX
  8
0
  5
423
 10
134.712
 20
164.963
 30
0.000000
  70
    32
  0
VERTEX
  8
0
  5
424
 10
134.697
 20
164.953
 30
0.000000
  70
    32
  0
VERTEX
  8
0
  5
425
 10
134.683
 20
164.943
 30
0.000000
  70
    32
  0
VERTEX
  8
0
  5
426
 10
134.668
 20
164.933
 30
0.000000
  70
    32
  0
VERTEX
  8
0
  5
427
 10
134.654
 20
164.922
 30
0.000000
  70
    32
  0
VERTEX
  8
0
  5
428
 10
134.640
 20
164.912
 30
0.000000
  70
    32
  0
VERTEX
  8
0
  5
429
 10
134.625
 20
164.902
 30
0.000000
  70
    32
  0
VERTEX
  8
0
  5
42A
 10
134.611
 20
164.892
 30
0.000000
  70
    32
  0
VERTEX
  8
0
  5
42B
 10
134.597
 20
164.882
 30
0.000000
  70
    32
  0
VERTEX
  8
0
  5
42C
 10
134.582
 20
164.871
 30
0.000000
  70
    32
  0
VERTEX
  8
0
  5
42D
 10
134.568
 20
164.861
 30
0.000000
  70
    32
  0
VERTEX
  8
0
  5
42E
 10
134.554
 20
164.851
 30
0.000000
  70
    32
  0
VERTEX
  8
0
  5
42F
 10
134.539
 20
164.840
 30
0.000000
  70
    32
  0
VERTEX
  8
0
  5
430
 10
134.525
 20
164.830
 30
0.000000
  70
    32
  0
VERTEX
  8
0
  5
431
 10
134.511
 20
164.820
 30
0.000000
  70
    32
  0
VERTEX
  8
0
  5
432
 10
134.497
 20
164.809
 30
0.000000
  70
    32
  0
VERTEX
  8
0
  5
433
 10
134.482
 20
164.799
 30
0.000000
  70
    32
  0
VERTEX
  8
0
  5
434
 10
134.468
 20
164.789
 30
0.000000
  70
    32
  0
VERTEX
  8
0
  5
435
 10
134.454
 20
164.778
 30
0.000000
  70
    32
  0
VERTEX
  8
0
  5
436
 10
134.440
 20
164.768
 30
0.000000
  70
    32
  0
VERTEX
  8
0
  5
437
 10
134.426
 20
164.757
 30
0.000000
  70
    32
  0
VERTEX
  8
0
  5
438
 10
134.411
 20
164.747
 30
0.000000
  70
    32
  0
VERTEX
  8
0
  5
439
 10
134.397
 20
164.737
 30
0.000000
  70
    32
  0
VERTEX
  8
0
  5
43A
 10
134.383
 20
164.726
 30
0.000000
  70
    32
  0
VERTEX
  8
0
  5
43B
 10
134.369
 20
164.716
 30
0.000000
  70
    32
  0
VERTEX
  8
0
  5
43C
 10
134.355
 20
164.705
 30
0.000000
  70
    32
  0
VERTEX
  8
0
  5
43D
 10
134.341
 20
164.694
 30
0.000000
  70
    32
  0
VERTEX
  8
0
  5
43E
 10
134.327
 20
164.684
 30
0.000000
  70
    32
  0
VERTEX
  8
0
  5
43F
 10
134.312
 20
164.673
 30
0.000000
  70
    32
  0
VERTEX
  8
0
  5
440
 10
134.298
 20
164.663
 30
0.000000
  70
    32
  0
VERTEX
  8
0
  5
441
 10
134.284
 20
164.652
 30
0.000000
  70
    32
  0
VERTEX
  8
0
  5
442
 10
134.270
 20
164.642
 30
0.000000
  70
    32
  0
VERTEX
  8
0
  5
443
 10
134.256
 20
164.631
 30
0.000000
  70
    32
  0
VERTEX
  8
0
  5
444
 10
134.242
 20
164.620
 30
0.000000
  70
    32
  0
VERTEX
  8
0
  5
445
 10
134.228
 20
164.610
 30
0.000000
  70
    32
  0
VERTEX
  8
0
  5
446
 10
134.214
 20
164.599
 30
0.000000
  70
    32
  0
VERTEX
  8
0
  5
447
 10
134.200
 20
164.588
 30
0.000000
  70
    32
  0
VERTEX
  8
0
  5
448
 10
134.186
 20
164.578
 30
0.000000
  70
    32
  0
VERTEX
  8
0
  5
449
 10
134.172
 20
164.567
 30
0.000000
  70
    32
  0
VERTEX
  8
0
  5
44A
 10
134.158
 20
164.556
 30
0.000000
  70
    32
  0
VERTEX
  8
0
  5
44B
 10
134.144
 20
164.545
 30
0.000000
  70
    32
  0
VERTEX
  8
0
  5
44C
 10
134.130
 20
164.535
 30
0.000000
  70
    32
  0
VERTEX
  8
0
  5
44D
 10
134.116
 20
164.524
 30
0.000000
  70
    32
  0
VERTEX
  8
0
  5
44E
 10
134.102
 20
164.513
 30
0.000000
  70
    32
  0
VERTEX
  8
0
  5
44F
 10
134.088
 20
164.502
 30
0.000000
  70
    32
  0
VERTEX
  8
0
  5
450
 10
134.074
 20
164.492
 30
0.000000
  70
    32
  0
VERTEX
  8
0
  5
451
 10
134.060
 20
164.481
 30
0.000000
  70
    32
  0
VERTEX
  8
0
  5
452
 10
134.047
 20
164.470
 30
0.000000
  70
    32
  0
VERTEX
  8
0
  5
453
 10
134.033
 20
164.459
 30
0.000000
  70
    32
  0
VERTEX
  8
0
  5
454
 10
134.019
 20
164.448
 30
0.000000
  70
    32
  0
VERTEX
  8
0
  5
455
 10
134.005
 20
164.437
 30
0.000000
  70
    32
  0
VERTEX
  8
0
  5
456
 10
133.991
 20
164.427
 30
0.000000
  70
    32
  0
VERTEX
  8
0
  5
457
 10
133.977
 20
164.416
 30
0.000000
  70
    32
  0
VERTEX
  8
0
  5
458
 10
133.963
 20
164.405
 30
0.000000
  70
    32
  0
VERTEX
  8
0
  5
459
 10
133.949
 20
164.394
 30
0.000000
  70
    32
  0
VERTEX
  8
0
  5
45A
 10
133.936
 20
164.383
 30
0.000000
  70
    32
  0
VERTEX
  8
0
  5
45B
 10
133.922
 20
164.372
 30
0.000000
  70
    32
  0
VERTEX
  8
0
  5
45C
 10
133.908
 20
164.361
 30
0.000000
  70
    32
  0
VERTEX
  8
0
  5
45D
 10
133.894
 20
164.350
 30
0.000000
  70
    32
  0
VERTEX
  8
0
  5
45E
 10
133.880
 20
164.339
 30
0.000000
  70
    32
  0
VERTEX
  8
0
  5
45F
 10
133.867
 20
164.328
 30
0.000000
  70
    32
  0
VERTEX
  8
0
  5
460
 10
133.853
 20
164.317
 30
0.000000
  70
    32
  0
VERTEX
  8
0
  5
461
 10
133.839
 20
164.306
 30
0.000000
  70
    32
  0
VERTEX
  8
0
  5
462
 10
133.825
 20
164.295
 30
0.000000
  70
    32
  0
VERTEX
  8
0
  5
463
 10
133.811
 20
164.284
 30
0.000000
  70
    32
  0
VERTEX
  8
0
  5
464
 10
133.798
 20
164.273
 30
0.000000
  70
    32
  0
VERTEX
  8
0
  5
465
 10
133.784
 20
164.262
 30
0.000000
  70
    32
  0
VERTEX
  8
0
  5
466
 10
133.770
 20
164.251
 30
0.000000
  70
    32
  0
VERTEX
  8
0
  5
467
 10
133.757
 20
164.240
 30
0.000000
  70
    32
  0
VERTEX
  8
0
  5
468
 10
133.743
 20
164.229
 30
0.000000
  70
    32
  0
VERTEX
  8
0
  5
469
 10
133.729
 20
164.218
 30
0.000000
  70
    32
  0
VERTEX
  8
0
  5
46A
 10
133.715
 20
164.207
 30
0.000000
  70
    32
  0
VERTEX
  8
0
  5
46B
 10
133.702
 20
164.196
 30
0.000000
  70
    32
  0
VERTEX
  8
0
  5
46C
 10
133.688
 20
164.184
 30
0.000000
  70
    32
  0
VERTEX
  8
0
  5
46D
 10
133.674
 20
164.173
 30
0.000000
  70
    32
  0
VERTEX
  8
0
  5
46E
 10
133.661
 20
164.162
 30
0.000000
  70
    32
  0
VERTEX
  8
0
  5
46F
 10
133.647
 20
164.151
 30
0.000000
  70
    32
  0
VERTEX
  8
0
  5
470
 10
133.633
 20
164.140
 30
0.000000
  70
    32
  0
VERTEX
  8
0
  5
471
 10
133.620
 20
164.129
 30
0.000000
  70
    32
  0
VERTEX
  8
0
  5
472
 10
133.606
 20
164.118
 30
0.000000
  70
    32
  0
VERTEX
  8
0
  5
473
 10
133.592
 20
164.106
 30
0.000000
  70
    32
  0
VERTEX
  8
0
  5
474
 10
133.579
 20
164.095
 30
0.000000
  70
    32
  0
VERTEX
  8
0
  5
475
 10
133.565
 20
164.084
 30
0.000000
  70
    32
  0
VERTEX
  8
0
  5
476
 10
133.552
 20
164.073
 30
0.000000
  70
    32
  0
VERTEX
  8
0
  5
477
 10
133.538
 20
164.062
 30
0.000000
  70
    32
  0
VERTEX
  8
0
  5
478
 10
133.524
 20
164.050
 30
0.000000
  70
    32
  0
VERTEX
  8
0
  5
479
 10
133.511
 20
164.039
 30
0.000000
  70
    32
  0
VERTEX
  8
0
  5
47A
 10
133.497
 20
164.028
 30
0.000000
  70
    32
  0
VERTEX
  8
0
  5
47B
 10
133.484
 20
164.017
 30
0.000000
  70
    32
  0
VERTEX
  8
0
  5
47C
 10
133.470
 20
164.005
 30
0.000000
  70
    32
  0
VERTEX
  8
0
  5
47D
 10
133.456
 20
163.994
 30
0.000000
  70
    32
  0
VERTEX
  8
0
  5
47E
 10
133.443
 20
163.983
 30
0.000000
  70
    32
  0
VERTEX
  8
0
  5
47F
 10
133.429
 20
163.972
 30
0.000000
  70
    32
  0
VERTEX
  8
0
  5
480
 10
133.416
 20
163.960
 30
0.000000
  70
    32
  0
VERTEX
  8
0
  5
481
 10
133.402
 20
163.949
 30
0.000000
  70
    32
  0
VERTEX
  8
0
  5
482
 10
133.389
 20
163.938
 30
0.000000
  70
    32
  0
VERTEX
  8
0
  5
483
 10
133.375
 20
163.926
 30
0.000000
  70
    32
  0
VERTEX
  8
0
  5
484
 10
133.362
 20
163.915
 30
0.000000
  70
    32
  0
VERTEX
  8
0
  5
485
 10
133.348
 20
163.904
 30
0.000000
  70
    32
  0
VERTEX
  8
0
  5
486
 10
133.335
 20
163.892
 30
0.000000
  70
    32
  0
VERTEX
  8
0
  5
487
 10
133.321
 20
163.881
 30
0.000000
  70
    32
  0
VERTEX
  8
0
  5
488
 10
133.308
 20
163.870
 30
0.000000
  70
    32
  0
VERTEX
  8
0
  5
489
 10
133.294
 20
163.858
 30
0.000000
  70
    32
  0
VERTEX
  8
0
  5
48A
 10
133.281
 20
163.847
 30
0.000000
  70
    32
  0
VERTEX
  8
0
  5
48B
 10
133.267
 20
163.836
 30
0.000000
  70
    32
  0
VERTEX
  8
0
  5
48C
 10
133.254
 20
163.824
 30
0.000000
  70
    32
  0
VERTEX
  8
0
  5
48D
 10
133.240
 20
163.813
 30
0.000000
  70
    32
  0
VERTEX
  8
0
  5
48E
 10
133.227
 20
163.802
 30
0.000000
  70
    32
  0
VERTEX
  8
0
  5
48F
 10
133.213
 20
163.790
 30
0.000000
  70
    32
  0
VERTEX
  8
0
  5
490
 10
133.200
 20
163.779
 30
0.000000
  70
    32
  0
VERTEX
  8
0
  5
491
 10
133.186
 20
163.767
 30
0.000000
  70
    32
  0
VERTEX
  8
0
  5
492
 10
133.173
 20
163.756
 30
0.000000
  70
    32
  0
VERTEX
  8
0
  5
493
 10
133.159
 20
163.745
 30
0.000000
  70
    32
  0
VERTEX
  8
0
  5
494
 10
133.146
 20
163.733
 30
0.000000
  70
    32
  0
VERTEX
  8
0
  5
495
 10
133.133
 20
163.722
 30
0.000000
  70
    32
  0
VERTEX
  8
0
  5
496
 10
133.119
 20
163.710
 30
0.000000
  70
    32
  0
VERTEX
  8
0
  5
497
 10
133.106
 20
163.699
 30
0.000000
  70
    32
  0
VERTEX
  8
0
  5
498
 10
133.092
 20
163.688
 30
0.000000
  70
    32
  0
VERTEX
  8
0
  5
499
 10
133.079
 20
163.676
 30
0.000000
  70
    32
  0
VERTEX
  8
0
  5
49A
 10
133.065
 20
163.665
 30
0.000000
  70
    32
  0
VERTEX
  8
0
  5
49B
 10
133.052
 20
163.653
 30
0.000000
  70
    32
  0
VERTEX
  8
0
  5
49C
 10
133.039
 20
163.642
 30
0.000000
  70
    32
  0
VERTEX
  8
0
  5
49D
 10
133.025
 20
163.630
 30
0.000000
  70
    32
  0
VERTEX
  8
0
  5
49E
 10
133.012
 20
163.619
 30
0.000000
  70
    32
  0
VERTEX
  8
0
  5
49F
 10
132.998
 20
163.608
 30
0.000000
  70
    32
  0
VERTEX
  8
0
  5
4A0
 10
132.985
 20
163.596
 30
0.000000
  70
    32
  0
VERTEX
  8
0
  5
4A1
 10
132.972
 20
163.585
 30
0.000000
  70
    32
  0
VERTEX
  8
0
  5
4A2
 10
132.958
 20
163.573
 30
0.000000
  70
    32
  0
VERTEX
  8
0
  5
4A3
 10
132.945
 20
163.562
 30
0.000000
  70
    32
  0
VERTEX
  8
0
  5
4A4
 10
132.932
 20
163.550
 30
0.000000
  70
    32
  0
VERTEX
  8
0
  5
4A5
 10
132.918
 20
163.539
 30
0.000000
  70
    32
  0
VERTEX
  8
0
  5
4A6
 10
132.905
 20
163.527
 30
0.000000
  70
    32
  0
VERTEX
  8
0
  5
4A7
 10
132.892
 20
163.516
 30
0.000000
  70
    32
  0
VERTEX
  8
0
  5
4A8
 10
132.878
 20
163.504
 30
0.000000
  70
    32
  0
VERTEX
  8
0
  5
4A9
 10
132.865
 20
163.493
 30
0.000000
  70
    32
  0
VERTEX
  8
0
  5
4AA
 10
132.851
 20
163.481
 30
0.000000
  70
    32
  0
VERTEX
  8
0
  5
4AB
 10
132.838
 20
163.470
 30
0.000000
  70
    32
  0
VERTEX
  8
0
  5
4AC
 10
132.825
 20
163.458
 30
0.000000
  70
    32
  0
VERTEX
  8
0
  5
4AD
 10
132.811
 20
163.447
 30
0.000000
  70
    32
  0
VERTEX
  8
0
  5
4AE
 10
132.798
 20
163.435
 30
0.000000
  70
    32
  0
VERTEX
  8
0
  5
4AF
 10
132.785
 20
163.424
 30
0.000000
  70
    32
  0
VERTEX
  8
0
  5
4B0
 10
132.771
 20
163.412
 30
0.000000
  70
    32
  0
VERTEX
  8
0
  5
4B1
 10
132.758
 20
163.401
 30
0.000000
  70
    32
  0
VERTEX
  8
0
  5
4B2
 10
132.745
 20
163.389
 30
0.000000
  70
    32
  0
VERTEX
  8
0
  5
4B3
 10
132.731
 20
163.378
 30
0.000000
  70
    32
  0
VERTEX
  8
0
  5
4B4
 10
132.718
 20
163.367
 30
0.000000
  70
    32
  0
VERTEX
  8
0
  5
4B5
 10
132.705
 20
163.355
 30
0.000000
  70
    32
  0
VERTEX
  8
0
  5
4B6
 10
132.692
 20
163.344
 30
0.000000
  70
    32
  0
VERTEX
  8
0
  5
4B7
 10
132.678
 20
163.332
 30
0.000000
  70
    32
  0
VERTEX
  8
0
  5
4B8
 10
132.665
 20
163.321
 30
0.000000
  70
    32
  0
VERTEX
  8
0
  5
4B9
 10
132.652
 20
163.309
 30
0.000000
  70
    32
  0
VERTEX
  8
0
  5
4BA
 10
132.638
 20
163.298
 30
0.000000
  70
    32
  0
VERTEX
  8
0
  5
4BB
 10
132.625
 20
163.286
 30
0.000000
  70
    32
  0
VERTEX
  8
0
  5
4BC
 10
132.612
 20
163.275
 30
0.000000
  70
    32
  0
SEQEND
  8
0
  5
4BD
  0
DIMENSION
  5
C0
  8
LINES
  2
*D11
 10
135.71967772203379
 20
166.54874417750429
 30
0.0
 11
133.40393638309271
 21
165.73267168401719
 31
0.0
 70
     1
 13
132.64648788879421
 23
162.97408855131351
 33
0.0
 14
136.2611373615141
 24
165.87378047346581
 34
0.0
1001
ACAD
1000
DSTYLE
1002
{
1070
    40
1040
4.0
1070
    41
1040
0.09375
1070
    78
1070
     3
1070
   142
1040
0.0
1070
   179
1070
     4
1070
   340
1005
2E
1002
}
  0
DIMENSION
  5
CD
  8
LINES
  2
*D12
 10
143.88511476071849
 20
162.2495668157608
 30
0.0
 11
141.28406489534709
 21
163.08002392614611
 31
0.0
 70
   128
 13
136.3668709062093
 23
165.64785307324689
 33
0.0
 14
143.88511476071849
 24
165.64785307324681
 34
0.0
1001
ACAD
1000
DSTYLE
1002
{
1070
    40
1040
4.0
1070
    41
1040
0.09375
1070
    78
1070
     3
1070
   142
1040
0.0
1070
   179
1070
     4
1070
   340
1005
2E
1002
}
  0
DIMENSION
  5
E3
  8
LINES
  2
*D13
 10
140.7136170641063
 20
169.59719720470889
 30
0.0
 11
144.95525690257929
 21
167.2986536364873
 31
0.0
 70
     1
 13
147.60549777813341
 23
162.9740885513136
 33
0.0
 14
140.12599283346381
 24
168.84908855131351
 34
0.0
1001
ACAD
1000
DSTYLE
1002
{
1070
    40
1040
4.0
1070
    41
1040
0.09375
1070
    78
1070
     3
1070
   142
1040
0.0
1070
   179
1070
     4
1070
   340
1005
2E
1002
}
  0
DIMENSION
  5
F0
  8
LINES
  2
*D14
 10
149.46568193745119
 20
161.11898766896519
 30
0.0
 11
145.15061967608909
 21
157.94272532386461
 31
0.0
 70
     1
 13
140.12599283346381
 23
155.4740885513134
 33
0.0
 14
147.60549777813341
 24
162.9740885513136
 34
0.0
1001
ACAD
1000
DSTYLE
1002
{
1070
    40
1040
4.0
1070
    41
1040
0.09375
1070
    78
1070
     3
1070
   142
1040
0.0
1070
   179
1070
     4
1070
   340
1005
2E
1002
}
  0
POLYLINE
  5
16A
  8
LINES
 66
     1
 10
0.0
 20
0.0
 30
0.0
 70
     1
  0
VERTEX
  5
1C3
  8
LINES
 10
131.11679656818859
 20
153.0716471263209
 30
0.0
  0
VERTEX
  5
1C4
  8
LINES
 10
153.9338506542656
 20
153.0716471263209
 30
0.0
  0
VERTEX
  5
1C5
  8
LINES
 10
153.9338506542656
 20
170.99306088218739
 30
0.0
  0
VERTEX
  5
1C6
  8
LINES
 10
131.11679656818859
 20
170.99306088218739
 30
0.0
  0
SEQEND
  5
1C7
  8
LINES
  0
TEXT
  5
16B
  8
LINES
 10
140.63013312040849
 20
160.8951166098274
 30
0.0
 40
0.6923462888057088
  1
dot-02
  7
KITE
  0
TEXT
  5
16C
  8
LINES
 10
140.63013312040849
 20
160.11215495749661
 30
0.0
 40
0.2975600438635172
  1
(Little Sister)
  7
KITE
  0
DIMENSION
  5
180
  8
LINES
  2
*D21
 10
135.25697083499409
 20
166.9511779062224
 30
0.0
 11
136.60974621362311
 21
169.17038532948749
 31
0.0
 70
     1
 13
140.12599283346381
 23
168.84908855131351
 33
0.0
 14
136.3668709062093
 24
165.64785307324689
 34
0.0
1001
ACAD
1000
DSTYLE
1002
{
1070
    40
1040
4.0
1070
    41
1040
0.09375
1070
    78
1070
     3
1070
   142
1040
0.0
1070
   179
1070
     4
1070
   340
1005
2E
1002
}
  0
ENDSEC
  0
EOF
