  0
SECTION
  2
HEADER
  9
$ACADVER
  1
AC1009
  9
$INSBASE
 10
0.0
 20
0.0
 30
0.0
  9
$EXTMIN
 10
-4.4822897943
 20
-1.0037613071
 30
0.0
  9
$EXTMAX
 10
30.8395817462
 20
30.5880033117
 30
0.0
  9
$LIMMIN
 10
0.0
 20
0.0
  9
$LIMMAX
 10
39.3458010286
 20
36.1216990509
  9
$ORTHOMODE
 70
     0
  9
$REGENMODE
 70
     1
  9
$FILLMODE
 70
     1
  9
$QTEXTMODE
 70
     0
  9
$MIRRTEXT
 70
     1
  9
$DRAGMODE
 70
     2
  9
$LTSCALE
 40
2.0
  9
$OSMODE
 70
     0
  9
$ATTMODE
 70
     1
  9
$TEXTSIZE
 40
0.25
  9
$TRACEWID
 40
0.05
  9
$TEXTSTYLE
  7
KITE
  9
$CLAYER
  8
LINES
  9
$CELTYPE
  6
BYLAYER
  9
$CECOLOR
 62
   256
  9
$DIMSCALE
 40
6.0
  9
$DIMASZ
 40
0.125
  9
$DIMEXO
 40
0.0625
  9
$DIMDLI
 40
0.375
  9
$DIMRND
 40
0.0
  9
$DIMDLE
 40
0.0625
  9
$DIMEXE
 40
0.0625
  9
$DIMTP
 40
0.0
  9
$DIMTM
 40
0.0
  9
$DIMTXT
 40
0.09375
  9
$DIMCEN
 40
0.09375
  9
$DIMTSZ
 40
0.0625
  9
$DIMTOL
 70
     0
  9
$DIMLIM
 70
     0
  9
$DIMTIH
 70
     0
  9
$DIMTOH
 70
     0
  9
$DIMSE1
 70
     0
  9
$DIMSE2
 70
     0
  9
$DIMTAD
 70
     1
  9
$DIMZIN
 70
     3
  9
$DIMBLK
  1

  9
$DIMASO
 70
     1
  9
$DIMSHO
 70
     1
  9
$DIMPOST
  1

  9
$DIMAPOST
  1

  9
$DIMALT
 70
     0
  9
$DIMALTD
 70
     2
  9
$DIMALTF
 40
25.4
  9
$DIMLFAC
 40
1.0
  9
$DIMTOFL
 70
     0
  9
$DIMTVP
 40
0.0
  9
$DIMTIX
 70
     0
  9
$DIMSOXD
 70
     0
  9
$DIMSAH
 70
     0
  9
$DIMBLK1
  1

  9
$DIMBLK2
  1

  9
$DIMSTYLE
  2
*UNNAMED
  9
$DIMCLRD
 70
     9
  9
$DIMCLRE
 70
     9
  9
$DIMCLRT
 70
     7
  9
$DIMTFAC
 40
1.0
  9
$DIMGAP
 40
0.09375
  9
$LUNITS
 70
     4
  9
$LUPREC
 70
     5
  9
$SKETCHINC
 40
0.1
  9
$FILLETRAD
 40
0.0
  9
$AUNITS
 70
     0
  9
$AUPREC
 70
     4
  9
$MENU
  1
acad
  9
$ELEVATION
 40
0.0
  9
$PELEVATION
 40
0.0
  9
$THICKNESS
 40
0.0
  9
$LIMCHECK
 70
     0
  9
$BLIPMODE
 70
     1
  9
$CHAMFERA
 40
0.1875
  9
$CHAMFERB
 40
0.1875
  9
$SKPOLY
 70
     0
  9
$TDCREATE
 40
2451830.369353587
  9
$TDUPDATE
 40
2451932.595240972
  9
$TDINDWG
 40
0.0192740741
  9
$TDUSRTIMER
 40
0.0192740741
  9
$USRTIMER
 70
     1
  9
$ANGBASE
 50
0.0
  9
$ANGDIR
 70
     0
  9
$PDMODE
 70
    99
  9
$PDSIZE
 40
0.25
  9
$PLINEWID
 40
0.03125
  9
$COORDS
 70
     2
  9
$SPLFRAME
 70
     0
  9
$SPLINETYPE
 70
     6
  9
$SPLINESEGS
 70
     8
  9
$ATTDIA
 70
     0
  9
$ATTREQ
 70
     1
  9
$HANDLING
 70
     0
  9
$HANDSEED
  5
0
  9
$SURFTAB1
 70
     6
  9
$SURFTAB2
 70
     6
  9
$SURFTYPE
 70
     6
  9
$SURFU
 70
     6
  9
$SURFV
 70
     6
  9
$UCSNAME
  2

  9
$UCSORG
 10
0.0
 20
0.0
 30
0.0
  9
$UCSXDIR
 10
1.0
 20
0.0
 30
0.0
  9
$UCSYDIR
 10
0.0
 20
1.0
 30
0.0
  9
$PUCSNAME
  2

  9
$PUCSORG
 10
0.0
 20
0.0
 30
0.0
  9
$PUCSXDIR
 10
1.0
 20
0.0
 30
0.0
  9
$PUCSYDIR
 10
0.0
 20
1.0
 30
0.0
  9
$USERI1
 70
     0
  9
$USERI2
 70
     0
  9
$USERI3
 70
     0
  9
$USERI4
 70
     0
  9
$USERI5
 70
     0
  9
$USERR1
 40
0.0
  9
$USERR2
 40
0.0
  9
$USERR3
 40
0.0
  9
$USERR4
 40
0.0
  9
$USERR5
 40
0.0
  9
$WORLDVIEW
 70
     1
  9
$SHADEDGE
 70
     3
  9
$SHADEDIF
 70
    70
  9
$TILEMODE
 70
     1
  9
$MAXACTVP
 70
    16
  9
$PINSBASE
 10
0.0
 20
0.0
 30
0.0
  9
$PLIMCHECK
 70
     0
  9
$PEXTMIN
 10
1.0000000000E+20
 20
1.0000000000E+20
 30
1.0000000000E+20
  9
$PEXTMAX
 10
-1.0000000000E+20
 20
-1.0000000000E+20
 30
-1.0000000000E+20
  9
$PLIMMIN
 10
0.0
 20
0.0
  9
$PLIMMAX
 10
12.0
 20
9.0
  9
$UNITMODE
 70
     0
  9
$VISRETAIN
 70
     0
  9
$PLINEGEN
 70
     0
  9
$PSLTSCALE
 70
     1
  9
$TREEDEPTH
 70
  3020
  9
$DWGCODEPAGE
  3
iso8859-1
  0
ENDSEC
  0
SECTION
  2
TABLES
  0
TABLE
  2
VPORT
 70
     2
  0
VPORT
  2
*ACTIVE
 70
     0
 10
0.0
 20
0.0
 11
1.0
 21
1.0
 12
29.3798595505
 22
17.5589688719
 13
0.0
 23
0.0
 14
0.5
 24
0.5
 15
60.0
 25
60.0
 16
0.0
 26
0.0
 36
1.0
 17
0.0
 27
0.0
 37
0.0
 40
37.1254603581
 41
1.8242009132
 42
50.0
 43
0.0
 44
0.0
 50
0.0
 51
0.0
 71
     0
 72
   100
 73
     1
 74
     0
 75
     0
 76
     0
 77
     0
 78
     0
  0
ENDTAB
  0
TABLE
  2
LTYPE
 70
     3
  0
LTYPE
  2
CONTINUOUS
 70
    64
  3
Solid line
 72
    65
 73
     0
 40
0.0
  0
LTYPE
  2
HIDDEN
 70
    64
  3
__ __ __ __ __ __ __ __ __ __ __ __ __ __ __ __
 72
    65
 73
     2
 40
0.375
 49
0.25
 49
-0.125
  0
LTYPE
  2
CENTER
 70
     0
  3
____ _ ____ _ ____ _ ____ _ ____ _ ____ _ ____ 
 72
    65
 73
     4
 40
2.0
 49
1.25
 49
-0.25
 49
0.25
 49
-0.25
  0
ENDTAB
  0
TABLE
  2
LAYER
 70
     4
  0
LAYER
  2
0
 70
    64
 62
     7
  6
CONTINUOUS
  0
LAYER
  2
LINES
 70
    64
 62
     7
  6
CONTINUOUS
  0
LAYER
  2
FOLD_LINE
 70
     0
 62
     1
  6
HIDDEN
  0
LAYER
  2
DEFPOINTS
 70
    64
 62
     7
  6
CONTINUOUS
  0
ENDTAB
  0
TABLE
  2
STYLE
 70
     3
  0
STYLE
  2
STANDARD
 70
     0
 40
0.0
 41
1.0
 50
0.0
 71
     0
 42
0.2
  3
txt
  4

  0
STYLE
  2
NEW
 70
     0
 40
0.0
 41
1.0
 50
0.0
 71
     0
 42
0.25
  3
COBT____.PFB
  4

  0
STYLE
  2
KITE
 70
    64
 40
0.0
 41
1.0
 50
0.0
 71
     0
 42
0.25
  3
TEL_____.PFB
  4

  0
ENDTAB
  0
TABLE
  2
VIEW
 70
     0
  0
ENDTAB
  0
TABLE
  2
UCS
 70
     0
  0
ENDTAB
  0
TABLE
  2
APPID
 70
     1
  0
APPID
  2
ACAD
 70
    64
  0
ENDTAB
  0
TABLE
  2
DIMSTYLE
 70
     1
  0
DIMSTYLE
  2
KITE
 70
     0
  3

  4

  5

  6

  7

 40
8.0
 41
0.0
 42
0.0625
 43
0.375
 44
0.0625
 45
0.0
 46
0.0625
 47
0.0
 48
0.0
140
0.09375
141
0.09375
142
0.09375
143
25.4
144
1.0
145
0.0
146
1.0
147
0.09375
 71
     0
 72
     0
 73
     0
 74
     0
 75
     0
 76
     0
 77
     1
 78
     1
170
     0
171
     2
172
     0
173
     0
174
     0
175
     0
176
     1
177
     1
178
     4
  0
ENDTAB
  0
ENDSEC
  0
SECTION
  2
BLOCKS
  0
BLOCK
  8
0
  2
WMF2
 70
    64
 10
0.0
 20
0.0
 30
0.0
  3
WMF2
  0
ENDBLK
  8
0
  0
BLOCK
  8
0
  2
*D10
 70
    65
 10
0.0
 20
0.0
 30
0.0
  3
*D
  0
LINE
  8
0
  6
BYBLOCK
 62
     9
 10
144.4292933808
 20
87.1383547607
 30
0.0
 11
142.7938607459
 21
85.6336001638
 31
0.0
  0
LINE
  8
0
  6
BYBLOCK
 62
     9
 10
142.7938607459
 20
85.6336001638
 30
0.0
 11
141.2411663771
 21
84.2049726928
 31
0.0
  0
LINE
  8
0
  6
BYBLOCK
 62
     9
 10
144.1312819586
 20
86.3545727807
 30
0.0
 11
144.1753828732
 21
87.4143157256
 31
0.0
  0
TEXT
  8
0
  6
BYBLOCK
 62
     7
 10
141.0279667168
 20
84.3909957995
 30
0.0
 40
0.5625
  1
R2'-0"
 50
42.6170266781
  7
KITE
 72
     1
 11
141.4296770764
 21
85.1427949949
 31
0.0
 73
     2
  0
POINT
  8
DEFPOINTS
  6
BYBLOCK
 62
     0
 10
144.1533324159
 20
86.8844442531
 30
0.0
  0
POINT
  8
DEFPOINTS
  6
BYBLOCK
 62
     0
 10
126.4918306645
 20
70.6341717667
 30
0.0
  0
ENDBLK
  8
0
  0
BLOCK
  8
0
  2
*D11
 70
    65
 10
0.0
 20
0.0
 30
0.0
  3
*D
  0
LINE
  8
0
  6
BYBLOCK
 62
     9
 10
157.6358397987
 20
91.2611302158
 30
0.0
 11
159.8998444942
 21
91.2611302158
 31
0.0
  0
LINE
  8
0
  6
BYBLOCK
 62
     9
 10
159.6339501976
 20
81.2611302158
 30
0.0
 11
159.1498444942
 21
81.2611302158
 31
0.0
  0
LINE
  8
0
  6
BYBLOCK
 62
     9
 10
159.5248444942
 20
91.6361302158
 30
0.0
 11
159.5248444942
 21
80.8861302158
 31
0.0
  0
LINE
  8
0
  6
BYBLOCK
 62
     9
 10
159.8998444942
 20
90.8861302158
 30
0.0
 11
159.1498444942
 21
91.6361302158
 31
0.0
  0
LINE
  8
0
  6
BYBLOCK
 62
     9
 10
159.8998444942
 20
80.8861302158
 30
0.0
 11
159.1498444942
 21
81.6361302158
 31
0.0
  0
TEXT
  8
0
  6
BYBLOCK
 62
     7
 10
159.2435944942
 20
85.9132239658
 30
0.0
 40
0.5625
  1
10"
 50
90.0
  7
KITE
 72
     1
 11
158.9623444942
 21
86.2611302158
 31
0.0
 73
     2
  0
POINT
  8
DEFPOINTS
  6
BYBLOCK
 62
     0
 10
157.2608397987
 20
91.2611302158
 30
0.0
  0
POINT
  8
DEFPOINTS
  6
BYBLOCK
 62
     0
 10
160.0089501976
 20
81.2611302158
 30
0.0
  0
POINT
  8
DEFPOINTS
  6
BYBLOCK
 62
     0
 10
159.5248444942
 20
81.2611302158
 30
0.0
  0
ENDBLK
  8
0
  0
BLOCK
  8
0
  2
*D12
 70
    65
 10
0.0
 20
0.0
 30
0.0
  3
*D
  0
LINE
  8
0
  6
BYBLOCK
 62
     9
 10
148.3858397987
 20
81.2611302158
 30
0.0
 11
161.3867070526
 21
81.2611302158
 31
0.0
  0
LINE
  8
0
  6
BYBLOCK
 62
     9
 10
148.8206636085
 20
97.7611302158
 30
0.0
 11
161.3867070526
 21
97.7611302158
 31
0.0
  0
LINE
  8
0
  6
BYBLOCK
 62
     9
 10
161.0117070526
 20
80.8861302158
 30
0.0
 11
161.0117070526
 21
98.1361302158
 31
0.0
  0
LINE
  8
0
  6
BYBLOCK
 62
     9
 10
161.3867070526
 20
80.8861302158
 30
0.0
 11
160.6367070526
 21
81.6361302158
 31
0.0
  0
LINE
  8
0
  6
BYBLOCK
 62
     9
 10
161.3867070526
 20
97.3861302158
 30
0.0
 11
160.6367070526
 21
98.1361302158
 31
0.0
  0
TEXT
  8
0
  6
BYBLOCK
 62
     7
 10
160.7304570526
 20
88.6732864658
 30
0.0
 40
0.5625
  1
16 1/2"
 50
90.0
  7
KITE
 72
     1
 11
160.4492070526
 21
89.5111302158
 31
0.0
 73
     2
  0
POINT
  8
DEFPOINTS
  6
BYBLOCK
 62
     0
 10
148.0108397987
 20
81.2611302158
 30
0.0
  0
POINT
  8
DEFPOINTS
  6
BYBLOCK
 62
     0
 10
148.4456636085
 20
97.7611302158
 30
0.0
  0
POINT
  8
DEFPOINTS
  6
BYBLOCK
 62
     0
 10
161.0117070526
 20
97.7611302158
 30
0.0
  0
ENDBLK
  8
0
  0
BLOCK
  8
0
  2
*D13
 70
    65
 10
0.0
 20
0.0
 30
0.0
  3
*D
  0
LINE
  8
0
  6
BYBLOCK
 62
     9
 10
152.2626926058
 20
85.4377898411
 30
0.0
 11
154.8840849283
 21
85.4377898411
 31
0.0
  0
LINE
  8
0
  6
BYBLOCK
 62
     9
 10
148.3858397987
 20
88.3494600284
 30
0.0
 11
154.8840849283
 21
88.3494600284
 31
0.0
  0
LINE
  8
0
  6
BYBLOCK
 62
     9
 10
154.5090849283
 20
85.0627898411
 30
0.0
 11
154.5090849283
 21
85.9755952578
 31
0.0
  0
LINE
  8
0
  6
BYBLOCK
 62
     9
 10
154.5090849283
 20
88.7244600284
 30
0.0
 11
154.5090849283
 21
87.5325952578
 31
0.0
  0
LINE
  8
0
  6
BYBLOCK
 62
     9
 10
154.8840849283
 20
85.0627898411
 30
0.0
 11
154.1340849283
 21
85.8127898411
 31
0.0
  0
LINE
  8
0
  6
BYBLOCK
 62
     9
 10
154.8840849283
 20
87.9744600284
 30
0.0
 11
154.1340849283
 21
88.7244600284
 31
0.0
  0
TEXT
  8
0
  6
BYBLOCK
 62
     7
 10
154.4153349283
 20
86.5195327578
 30
0.0
 40
0.5625
  1
3"
 50
90.0
  7
KITE
 72
     1
 11
154.1340849283
 21
86.7614077578
 31
0.0
 73
     2
  0
POINT
  8
DEFPOINTS
  6
BYBLOCK
 62
     0
 10
151.8876926058
 20
85.4377898411
 30
0.0
  0
POINT
  8
DEFPOINTS
  6
BYBLOCK
 62
     0
 10
148.0108397987
 20
88.3494600284
 30
0.0
  0
POINT
  8
DEFPOINTS
  6
BYBLOCK
 62
     0
 10
154.5090849283
 20
88.3494600284
 30
0.0
  0
ENDBLK
  8
0
  0
BLOCK
  8
0
  2
*D14
 70
    65
 10
0.0
 20
0.0
 30
0.0
  3
*D
  0
LINE
  8
0
  6
BYBLOCK
 62
     9
 10
148.3858397987
 20
85.4377898411
 30
0.0
 11
152.2626926058
 21
85.4377898411
 31
0.0
  0
LINE
  8
0
  6
BYBLOCK
 62
     9
 10
151.8120132655
 20
81.2611302158
 30
0.0
 11
152.2626926058
 21
81.2611302158
 31
0.0
  0
LINE
  8
0
  6
BYBLOCK
 62
     9
 10
151.8876926058
 20
85.8127898411
 30
0.0
 11
151.8876926058
 21
80.8861302158
 31
0.0
  0
LINE
  8
0
  6
BYBLOCK
 62
     9
 10
152.2626926058
 20
85.0627898411
 30
0.0
 11
151.5126926058
 21
85.8127898411
 31
0.0
  0
LINE
  8
0
  6
BYBLOCK
 62
     9
 10
152.2626926058
 20
80.8861302158
 30
0.0
 11
151.5126926058
 21
81.6361302158
 31
0.0
  0
TEXT
  8
0
  6
BYBLOCK
 62
     7
 10
151.6064426058
 20
82.4584600284
 30
0.0
 40
0.5625
  1
4 3/16"
 50
90.0
  7
KITE
 72
     1
 11
151.3251926058
 21
83.3494600284
 31
0.0
 73
     2
  0
POINT
  8
DEFPOINTS
  6
BYBLOCK
 62
     0
 10
148.0108397987
 20
85.4377898411
 30
0.0
  0
POINT
  8
DEFPOINTS
  6
BYBLOCK
 62
     0
 10
151.4370132655
 20
81.2611302158
 30
0.0
  0
POINT
  8
DEFPOINTS
  6
BYBLOCK
 62
     0
 10
151.8876926058
 20
81.2611302158
 30
0.0
  0
ENDBLK
  8
0
  0
BLOCK
  8
0
  2
*D15
 70
    65
 10
0.0
 20
0.0
 30
0.0
  3
*D
  0
LINE
  8
0
  6
BYBLOCK
 62
     9
 10
148.0108397987
 20
92.8794581246
 30
0.0
 11
148.0108397987
 21
92.6031110716
 31
0.0
  0
LINE
  8
0
  6
BYBLOCK
 62
     9
 10
149.0108397987
 20
93.4512748881
 30
0.0
 11
149.0108397987
 21
92.6031110716
 31
0.0
  0
LINE
  8
0
  6
BYBLOCK
 62
     9
 10
148.3858397987
 20
92.9781110716
 30
0.0
 11
147.2608397987
 21
92.9781110716
 31
0.0
  0
LINE
  8
0
  6
BYBLOCK
 62
     9
 10
148.6358397987
 20
92.9781110716
 30
0.0
 11
149.7608397987
 21
92.9781110716
 31
0.0
  0
LINE
  8
0
  6
BYBLOCK
 62
     9
 10
149.7608397987
 20
92.9781110716
 30
0.0
 11
150.5590272987
 21
92.9781110716
 31
0.0
  0
LINE
  8
0
  6
BYBLOCK
 62
     9
 10
147.6358397987
 20
92.6031110716
 30
0.0
 11
148.3858397987
 21
93.3531110716
 31
0.0
  0
LINE
  8
0
  6
BYBLOCK
 62
     9
 10
148.6358397987
 20
92.6031110716
 30
0.0
 11
149.3858397987
 21
93.3531110716
 31
0.0
  0
TEXT
  8
0
  6
BYBLOCK
 62
     7
 10
150.2468397987
 20
93.2593610716
 30
0.0
 40
0.5625
  1
1"
  7
KITE
 72
     1
 11
150.4411835487
 21
93.5406110716
 31
0.0
 73
     2
  0
POINT
  8
DEFPOINTS
  6
BYBLOCK
 62
     0
 10
148.0108397987
 20
93.2544581246
 30
0.0
  0
POINT
  8
DEFPOINTS
  6
BYBLOCK
 62
     0
 10
149.0108397987
 20
93.8262748881
 30
0.0
  0
POINT
  8
DEFPOINTS
  6
BYBLOCK
 62
     0
 10
149.0108397987
 20
92.9781110716
 30
0.0
  0
ENDBLK
  8
0
  0
BLOCK
  8
0
  2
*D16
 70
    65
 10
0.0
 20
0.0
 30
0.0
  3
*D
  0
LINE
  8
0
  6
BYBLOCK
 62
     9
 10
138.7608397987
 20
91.6361302158
 30
0.0
 11
138.7608397987
 21
100.2711259359
 31
0.0
  0
LINE
  8
0
  6
BYBLOCK
 62
     9
 10
157.2608397987
 20
91.6361302158
 30
0.0
 11
157.2608397987
 21
100.2711259359
 31
0.0
  0
LINE
  8
0
  6
BYBLOCK
 62
     9
 10
138.3858397987
 20
99.8961259359
 30
0.0
 11
157.6358397987
 21
99.8961259359
 31
0.0
  0
LINE
  8
0
  6
BYBLOCK
 62
     9
 10
138.3858397987
 20
99.5211259359
 30
0.0
 11
139.1358397987
 21
100.2711259359
 31
0.0
  0
LINE
  8
0
  6
BYBLOCK
 62
     9
 10
156.8858397987
 20
99.5211259359
 30
0.0
 11
157.6358397987
 21
100.2711259359
 31
0.0
  0
TEXT
  8
0
  6
BYBLOCK
 62
     7
 10
147.1915585487
 20
100.1773759359
 30
0.0
 40
0.5625
  1
18 1/2"
  7
KITE
 72
     1
 11
148.0108397987
 21
100.4586259359
 31
0.0
 73
     2
  0
POINT
  8
DEFPOINTS
  6
BYBLOCK
 62
     0
 10
138.7608397987
 20
91.2611302158
 30
0.0
  0
POINT
  8
DEFPOINTS
  6
BYBLOCK
 62
     0
 10
157.2608397987
 20
91.2611302158
 30
0.0
  0
POINT
  8
DEFPOINTS
  6
BYBLOCK
 62
     0
 10
157.2608397987
 20
99.8961259359
 30
0.0
  0
ENDBLK
  8
0
  0
BLOCK
  8
0
  2
*D17
 70
    65
 10
0.0
 20
0.0
 30
0.0
  3
*D
  0
LINE
  8
0
  6
BYBLOCK
 62
     9
 10
138.5452352299
 20
91.5679521022
 30
0.0
 11
137.8504873001
 21
92.5566318485
 31
0.0
  0
LINE
  8
0
  6
BYBLOCK
 62
     9
 10
142.6467357177
 20
94.45008758
 30
0.0
 11
141.9519877879
 21
95.4387673264
 31
0.0
  0
LINE
  8
0
  6
BYBLOCK
 62
     9
 10
137.7592699825
 20
92.0342053934
 30
0.0
 11
142.474414243
 21
95.3475500088
 31
0.0
  0
LINE
  8
0
  6
BYBLOCK
 62
     9
 10
137.9748745513
 20
91.7273835071
 30
0.0
 11
138.1573091864
 21
92.7722364172
 31
0.0
  0
LINE
  8
0
  6
BYBLOCK
 62
     9
 10
142.0763750391
 20
94.609518985
 30
0.0
 11
142.2588096742
 21
95.6543718951
 31
0.0
  0
TEXT
  8
0
  6
BYBLOCK
 62
     7
 10
139.755857871
 20
93.7809589484
 30
0.0
 40
0.5625
  1
5"
 50
35.095816787
  7
KITE
 72
     1
 11
139.7934352596
 21
94.1511105306
 31
0.0
 73
     2
  0
POINT
  8
DEFPOINTS
  6
BYBLOCK
 62
     0
 10
138.7608397987
 20
91.2611302158
 30
0.0
  0
POINT
  8
DEFPOINTS
  6
BYBLOCK
 62
     0
 10
142.8623402865
 20
94.1432656937
 30
0.0
  0
POINT
  8
DEFPOINTS
  6
BYBLOCK
 62
     0
 10
142.1675923566
 20
95.1319454401
 30
0.0
  0
ENDBLK
  8
0
  0
BLOCK
  8
0
  2
*D18
 70
    65
 10
0.0
 20
0.0
 30
0.0
  3
*D
  0
LINE
  8
0
  6
BYBLOCK
 62
     9
 10
150.6867128396
 20
95.2611302158
 30
0.0
 11
159.8767915024
 21
95.2611302158
 31
0.0
  0
LINE
  8
0
  6
BYBLOCK
 62
     9
 10
159.2996865661
 20
97.7611302158
 30
0.0
 11
159.1267915024
 21
97.7611302158
 31
0.0
  0
LINE
  8
0
  6
BYBLOCK
 62
     9
 10
159.5017915024
 20
95.6361302158
 30
0.0
 11
159.5017915024
 21
94.5111302158
 31
0.0
  0
LINE
  8
0
  6
BYBLOCK
 62
     9
 10
159.5017915024
 20
97.3861302158
 30
0.0
 11
159.5017915024
 21
98.5111302158
 31
0.0
  0
LINE
  8
0
  6
BYBLOCK
 62
     9
 10
159.5017915024
 20
98.5111302158
 30
0.0
 11
159.5017915024
 21
100.4421927158
 31
0.0
  0
LINE
  8
0
  6
BYBLOCK
 62
     9
 10
159.8767915024
 20
94.8861302158
 30
0.0
 11
159.1267915024
 21
95.6361302158
 31
0.0
  0
LINE
  8
0
  6
BYBLOCK
 62
     9
 10
159.8767915024
 20
97.3861302158
 30
0.0
 11
159.1267915024
 21
98.1361302158
 31
0.0
  0
TEXT
  8
0
  6
BYBLOCK
 62
     7
 10
159.2205415024
 20
99.0477552158
 30
0.0
 40
0.5625
  1
2 1/2"
 50
90.0
  7
KITE
 72
     1
 11
158.9392915024
 21
99.7579114658
 31
0.0
 73
     2
  0
POINT
  8
DEFPOINTS
  6
BYBLOCK
 62
     0
 10
150.3117128396
 20
95.2611302158
 30
0.0
  0
POINT
  8
DEFPOINTS
  6
BYBLOCK
 62
     0
 10
159.6746865661
 20
97.7611302158
 30
0.0
  0
POINT
  8
DEFPOINTS
  6
BYBLOCK
 62
     0
 10
159.5017915024
 20
97.7611302158
 30
0.0
  0
ENDBLK
  8
0
  0
ENDSEC
  0
SECTION
  2
ENTITIES
  0
TEXT
  8
LINES
 10
17.9499080645
 20
17.8641796502
 30
0.0
 40
1.1045608158
  1
DOT-01
  7
KITE
  0
INSERT
  8
LINES
  2
WMF2
 10
85.2984869991
 20
44.8863178635
 30
0.0
  0
TEXT
  8
LINES
 10
13.1705230866
 20
18.9731095507
 30
0.0
 40
0.4432741006
  1
S= 152.6 SQ. IN.
  7
KITE
  0
TEXT
  8
LINES
 10
13.1705230866
 20
18.44118063
 30
0.0
 40
0.4432741006
  1
A= 1.1212
  7
KITE
  0
TEXT
  8
LINES
 10
13.1705230866
 20
17.9092517093
 30
0.0
 40
0.4432741006
  1
L= 16.5"
  7
KITE
  0
TEXT
  8
LINES
 10
13.1705230866
 20
17.3773227886
 30
0.0
 40
0.4432741006
  1
W= 18.5"
  7
KITE
  0
TEXT
  8
LINES
 10
13.1705230866
 20
16.8453938679
 30
0.0
 40
0.4432741006
  1
T= .6061
  7
KITE
  0
TEXT
  8
LINES
 10
13.1705230866
 20
16.3134649472
 30
0.0
 40
0.4432741006
  1
B= .8485
  7
KITE
  0
LINE
  8
LINES
 10
17.0367193399
 20
26.123197142
 30
0.0
 11
17.0367193399
 21
9.623197142
 31
0.0
  0
LINE
  8
LINES
 10
7.7867193399
 20
19.623197142
 30
0.0
 11
26.2867193399
 21
19.623197142
 31
0.0
  0
LINE
  8
LINES
 10
17.0367193399
 20
26.123197142
 30
0.0
 11
11.8882198277
 21
22.5053326199
 31
0.0
  0
LINE
  8
LINES
 10
22.1852188521
 20
22.5053326199
 30
0.0
 11
17.0367193399
 21
26.123197142
 31
0.0
  0
ARC
  8
LINES
 10
17.0367193399
 20
10.927884642
 30
0.0
 40
12.6953125
 50
43.2295578856
 51
136.7704421144
  0
LINE
  8
LINES
 10
14.755541107
 20
23.623197142
 30
0.0
 11
19.3375923808
 21
23.623197142
 31
0.0
  0
ARC
  8
LINES
 10
38.5557284742
 20
-1.0037613071
 30
0.0
 40
24.0
 50
120.7443751561
 51
153.71797406
  0
ARC
  8
LINES
 10
-4.4822897943
 20
-1.0037613071
 30
0.0
 40
24.0
 50
26.28202594
 51
59.2556248439
  0
LINE
  8
LINES
 10
16.0367193399
 20
24.1192381122
 30
0.0
 11
16.0367193399
 21
22.1883418143
 31
0.0
  0
LINE
  8
LINES
 10
18.0367193399
 20
24.1192381122
 30
0.0
 11
18.0367193399
 21
22.1883418143
 31
0.0
  0
LINE
  8
LINES
 10
16.6018955301
 20
26.123197142
 30
0.0
 11
11.7444834485
 21
22.7098805442
 31
0.0
  0
ARC
  8
LINES
 10
17.0367193399
 20
10.927884642
 30
0.0
 40
13.1953125
 50
115.1680427419
 51
136.7704421144
  0
LINE
  8
LINES
 10
11.8882198277
 20
22.5053326199
 30
0.0
 11
11.7444834485
 21
22.7098805442
 31
0.0
  0
LINE
  8
LINES
 10
11.8882198277
 20
22.5053326199
 30
0.0
 11
11.4250887597
 21
22.8704921548
 31
0.0
  0
LINE
  8
LINES
 10
7.7867193399
 20
19.623197142
 30
0.0
 11
7.4224116476
 21
19.9656586805
 31
0.0
  0
LINE
  8
LINES
 10
17.0367193399
 20
26.123197142
 30
0.0
 11
16.6018955301
 21
26.123197142
 31
0.0
  0
LINE
  8
LINES
 10
17.4715431497
 20
26.123197142
 30
0.0
 11
22.3289552313
 21
22.7098805442
 31
0.0
  0
LINE
  8
LINES
 10
17.0367193399
 20
26.123197142
 30
0.0
 11
17.4715431497
 21
26.123197142
 31
0.0
  0
LINE
  8
LINES
 10
22.1852188521
 20
22.5053326199
 30
0.0
 11
22.6483499201
 21
22.8704921548
 31
0.0
  0
LINE
  8
LINES
 10
22.1852188521
 20
22.5053326199
 30
0.0
 11
22.3289552313
 21
22.7098805442
 31
0.0
  0
ARC
  8
LINES
 10
17.0367193399
 20
10.927884642
 30
0.0
 40
13.1953125
 50
43.2295578856
 51
64.8319572581
  0
LINE
  8
LINES
 10
26.2867193399
 20
19.623197142
 30
0.0
 11
26.6510270322
 21
19.9656586805
 31
0.0
  0
POINT
  8
LINES
 10
17.0367193399
 20
16.7115269547
 30
0.0
  0
POINT
  8
LINES
 10
17.0367193399
 20
13.7998567673
 30
0.0
  0
DIMENSION
  8
LINES
  2
*D16
 10
26.2867193399
 20
28.2581928621
 30
0.0
 11
17.0367193399
 21
28.8206928621
 31
0.0
 12
-130.9741204588
 22
-71.6379330738
 32
0.0
  1
18 1/2"
 13
7.7867193399
 23
19.623197142
 33
0.0
 14
26.2867193399
 24
19.623197142
 34
0.0
  0
DIMENSION
  8
LINES
  2
*D12
 10
30.0375865938
 20
26.123197142
 30
0.0
 11
29.4750865938
 21
17.873197142
 31
0.0
 12
-130.9741204588
 22
-71.6379330738
 32
0.0
  1
16 1/2"
 13
17.0367193399
 23
9.623197142
 33
0.0
 14
17.4715431497
 24
26.123197142
 34
0.0
 50
90.0
  0
DIMENSION
  8
LINES
  2
*D14
 10
20.913572147
 20
9.623197142
 30
0.0
 11
20.351072147
 21
11.7115269547
 31
0.0
 12
-130.9741204588
 22
-71.6379330738
 32
0.0
 13
17.0367193399
 23
13.7998567673
 33
0.0
 14
20.4628928067
 24
9.623197142
 34
0.0
 50
90.0
  0
DIMENSION
  8
LINES
  2
*D11
 10
28.5507240354
 20
9.623197142
 30
0.0
 11
27.9882240354
 21
14.623197142
 31
0.0
 12
-130.9741204588
 22
-71.6379330738
 32
0.0
 13
26.2867193399
 23
19.623197142
 33
0.0
 14
29.0348297388
 24
9.623197142
 34
0.0
 50
90.0
  0
DIMENSION
  8
LINES
  2
*D18
 10
28.5276710436
 20
26.123197142
 30
0.0
 11
27.9651710436
 21
28.119978392
 31
0.0
 12
-130.9741204588
 22
-71.6379330738
 32
0.0
 13
19.3375923808
 23
23.623197142
 33
0.0
 14
28.7005661073
 24
26.123197142
 34
0.0
 50
90.0
  0
DIMENSION
  8
LINES
  2
*D15
 10
18.0367193399
 20
21.3401779978
 30
0.0
 11
19.4670630899
 21
21.9026779978
 31
0.0
 12
-130.9741204588
 22
-71.6379330738
 32
0.0
 13
17.0367193399
 23
21.6165250508
 33
0.0
 14
18.0367193399
 24
22.1883418143
 34
0.0
  0
DIMENSION
  8
LINES
  2
*D13
 10
23.5349644695
 20
16.7115269547
 30
0.0
 11
23.1599644695
 21
15.123474684
 31
0.0
 12
-130.9741204588
 22
-71.6379330738
 32
0.0
 70
   128
  1
3"
 13
20.913572147
 23
13.7998567673
 33
0.0
 14
17.0367193399
 24
16.7115269547
 34
0.0
 50
90.0
  0
DIMENSION
  8
LINES
  2
*D10
 10
-4.4822897943
 20
-1.0037613071
 30
0.0
 11
10.4555566176
 21
13.5048619211
 31
0.0
 12
-130.9741204588
 22
-71.6379330738
 32
0.0
 70
     4
 15
13.1792119571
 25
15.2465111793
 35
0.0
 40
-1.8473695238
  0
DIMENSION
  8
LINES
  2
*D17
 10
11.1934718978
 20
23.4940123663
 30
0.0
 11
8.8193148008
 21
22.5131774568
 31
0.0
 12
-130.9741204588
 22
-71.6379330738
 32
0.0
 70
     1
 13
7.7867193399
 23
19.623197142
 33
0.0
 14
11.8882198277
 24
22.5053326199
 34
0.0
  0
TEXT
  8
LINES
 10
10.3289269332
 20
25.9055444566
 30
0.0
 40
0.375
  1
1/4" FOLD OVER
  7
KITE
  0
TEXT
  8
LINES
 10
10.3289269332
 20
25.2626873137
 30
0.0
 40
0.375
  1
FLAP, CONTACT 
  7
KITE
  0
TEXT
  8
LINES
 10
10.3289269332
 20
24.6198301709
 30
0.0
 40
0.375
  1
CEMENT IN PLACE
  7
KITE
  0
TEXT
  8
LINES
 10
17.5074217373
 20
16.8838096876
 30
0.0
 40
0.375
  1
REAR BRIDLE
  7
KITE
  0
TEXT
  8
LINES
 10
17.5074217373
 20
16.2409525448
 30
0.0
 40
0.375
  1
LOCATIONS USE
  7
KITE
  0
TEXT
  8
LINES
 10
17.5074217373
 20
15.5980954019
 30
0.0
 40
0.375
  1
ACCORDING TO
  7
KITE
  0
TEXT
  8
LINES
 10
17.5074217373
 20
14.9552382591
 30
0.0
 40
0.375
  1
WIND RANGE
  7
KITE
  0
TEXT
  8
LINES
 10
17.5074217373
 20
14.3123811162
 30
0.0
 40
0.375
  1
REAR-LIGHT
  7
KITE
  0
SOLID
  8
LINES
 62
     9
 10
14.5546989175
 20
25.1573869867
 30
0.0
 11
14.4521108848
 21
25.0260345093
 31
0.0
 12
14.8974623334
 22
24.7839466499
 32
0.0
 13
14.8974623334
 23
24.7839466499
 33
0.0
  0
LINE
  8
LINES
 62
     9
 10
14.5034049011
 20
25.091710748
 30
0.0
 11
13.8561738677
 21
25.5972067974
 31
0.0
  0
LINE
  8
LINES
 62
     9
 10
13.8561738677
 20
25.5972067974
 30
0.0
 11
13.5532536391
 21
25.5972067974
 31
0.0
  0
ENDSEC
  0
EOF
